VERSION	0.00.00	1.03.00
FES_MODE	0
BPM_DEF	260.000	260.000	260.000	260.000
MET_DEF	4	4
RESOLUTION	384
CLK_DEF	384
COMPATIBLE_CODE	MA2

BPM	0	0	260.000
MET	0	0	4	4

TAP	2	0	0
TAP	2	160	1
TAP	2	160	7
TAP	2	288	2
TAP	3	0	7
TAP	3	160	0
TAP	3	160	6
TAP	3	288	5
TAP	4	0	0
TAP	4	160	1
TAP	4	160	7
TAP	4	288	2
TAP	5	0	7
TAP	5	160	0
TAP	5	160	6
TAP	5	288	5
TAP	6	0	1
TAP	6	0	7
TAP	6	160	2
TAP	6	160	6
TAP	6	288	3
TAP	6	288	5
TAP	7	0	0
TAP	7	0	6
TAP	7	160	1
TAP	7	160	5
TAP	7	288	2
TAP	7	288	4
TAP	8	0	1
TAP	8	0	7
TAP	8	160	2
TAP	8	160	6
TAP	8	288	3
TAP	8	288	5
TAP	9	0	0
TAP	9	0	6
TAP	9	160	1
TAP	9	160	5
TAP	9	288	2
TAP	9	288	4
BST	10	0	3
SI_	10	0	3	96	96	7
STR	10	192	4
SI_	10	192	4	96	64	6
TAP	10	352	1
TAP	11	96	1
TAP	11	192	0
TAP	11	288	7
TAP	12	0	6
TAP	12	0	7
TAP	12	96	0
TAP	12	96	7
TAP	12	192	0
TAP	12	192	1
STR	12	352	0
SCL	12	352	0	96	128	5
STR	12	352	1
SCR	12	352	1	96	128	4
HLD	13	352	2	320
TAP	13	352	7
TAP	14	96	0
TAP	14	192	7
TAP	14	288	6
HLD	15	0	5	288
TAP	15	96	7
TAP	15	192	0
TAP	15	288	1
HLD	16	0	2	96
HLD	16	0	7	96
TAP	16	192	0
TAP	16	192	5
STR	16	352	6
SCL	16	352	6	96	128	3
STR	16	352	7
SCR	16	352	7	96	128	2
TAP	17	288	1
TAP	17	288	6
STR	18	0	7
SI_	18	0	7	96	96	3
STR	18	192	0
SI_	18	192	0	96	64	2
TAP	18	352	5
TAP	19	96	5
TAP	19	192	4
TAP	19	288	3
TAP	20	0	2
TAP	20	0	3
TAP	20	96	3
TAP	20	96	4
TAP	20	192	4
TAP	20	192	5
STR	20	352	4
SCL	20	352	4	96	128	1
STR	20	352	5
SCR	20	352	5	96	128	0
TAP	21	352	3
HLD	21	352	6	320
TAP	22	96	4
TAP	22	192	3
TAP	22	288	2
HLD	23	0	1	288
TAP	23	96	3
TAP	23	192	4
TAP	23	288	5
HLD	24	0	3	96
HLD	24	0	6	96
TAP	24	192	1
TAP	24	192	4
STR	24	352	2
SCL	24	352	2	96	128	7
STR	24	352	3
SCR	24	352	3	96	128	6
HLD	26	0	5	192
TAP	26	96	0
HLD	26	192	2	192
TAP	26	288	7
HLD	27	0	5	192
TAP	27	96	0
HLD	27	192	2	192
TAP	27	288	7
STR	28	0	5
SCR	28	0	5	96	96	0
STR	28	192	1
SCR	28	192	1	96	96	4
STR	29	0	5
SCR	29	0	5	96	96	1
HLD	30	0	2	192
TAP	30	96	0
HLD	30	192	5	192
TAP	30	288	7
HLD	31	0	2	192
TAP	31	96	0
HLD	31	192	5	192
TAP	31	288	7
STR	32	0	2
SCL	32	0	2	96	96	7
STR	32	192	6
SCL	32	192	6	96	96	3
STR	33	0	2
SCL	33	0	2	96	96	6
TAP	34	0	5
TAP	34	96	0
TAP	34	96	7
TAP	34	192	2
TAP	34	288	0
TAP	34	288	7
TAP	35	0	1
TAP	35	0	6
TAP	35	96	2
TAP	35	96	5
TAP	35	192	3
TAP	35	192	4
TAP	35	256	3
TAP	35	256	4
HLD	35	352	3	128
HLD	35	352	4	128
HLD	36	192	2	96
HLD	36	192	5	96
HLD	37	0	1	96
HLD	37	0	6	96
HLD	37	192	0	96
HLD	37	192	7	96
STR	38	0	1
SXL	38	0	1	96	288	4
HLD	38	0	6	384
TAP	39	96	2
TAP	39	96	7
TAP	39	256	0
TAP	39	256	5
HLD	40	0	1	384
STR	40	0	6
SXR	40	0	6	96	288	3
TAP	41	96	1
TAP	41	192	0
TAP	41	256	0
TAP	42	0	0
TAP	42	0	6
TAP	42	96	2
TAP	42	96	7
TAP	42	192	1
TAP	42	192	4
TAP	42	288	3
TAP	42	288	6
BST	43	0	0
SI_	43	0	0	96	96	5
BST	43	0	1
SI_	43	0	1	96	96	4
TAP	43	288	3
STR	44	0	2
SCL	44	0	2	96	96	7
TAP	44	0	6
STR	44	192	6
SCL	44	192	6	96	64	3
TAP	44	352	1
TAP	45	96	1
TAP	45	192	2
TAP	45	288	3
TAP	46	0	1
TAP	46	0	4
TAP	46	96	0
TAP	46	96	5
TAP	46	192	6
TAP	46	192	7
STR	46	352	6
SCL	46	352	6	96	128	3
STR	46	352	7
SCR	46	352	7	96	128	2
TAP	47	352	0
HLD	47	352	5	320
TAP	48	96	7
TAP	48	192	0
TAP	48	288	1
HLD	49	0	2	288
TAP	49	96	0
TAP	49	192	7
TAP	49	288	6
HLD	50	0	0	96
HLD	50	0	5	96
TAP	50	192	2
TAP	50	192	7
STR	50	352	0
SCL	50	352	0	96	128	5
STR	50	352	1
SCR	50	352	1	96	128	4
TAP	51	288	1
TAP	51	288	6
STR	52	0	0
SI_	52	0	0	96	96	4
STR	52	192	7
SI_	52	192	7	96	64	5
TAP	52	352	3
TAP	53	96	3
TAP	53	192	4
TAP	53	288	5
TAP	54	0	3
TAP	54	0	6
TAP	54	96	2
TAP	54	96	7
TAP	54	192	0
TAP	54	192	1
STR	54	352	0
SCL	54	352	0	96	128	5
STR	54	352	1
SCR	54	352	1	96	128	4
HLD	55	352	2	320
TAP	55	352	7
TAP	56	96	0
TAP	56	192	7
TAP	56	288	6
HLD	57	0	5	288
TAP	57	96	7
TAP	57	192	0
TAP	57	288	1
HLD	58	0	2	96
HLD	58	0	7	96
TAP	58	192	0
TAP	58	192	5
STR	58	352	6
SCL	58	352	6	96	128	3
STR	58	352	7
SCR	58	352	7	96	128	2
TAP	59	352	0
HLD	59	352	1	704
TAP	60	96	0
TAP	60	192	7
TAP	60	288	6
TAP	61	0	5
TAP	61	96	4
TAP	61	192	3
TAP	61	288	2
BRK	62	0	1
BRK	62	0	2
BRK	62	192	5
BRK	62	192	6
BST	62	352	3
SCL	62	352	3	96	320	4
BRK	62	352	4
TAP	65	0	5
TAP	65	96	4
TAP	65	192	5
TAP	65	256	5
HLD	66	0	0	96
HLD	66	0	1	96
HLD	66	160	0	96
HLD	66	160	1	96
TAP	67	0	2
TAP	67	96	3
TAP	67	192	2
TAP	67	256	2
HLD	68	0	6	96
HLD	68	0	7	96
HLD	68	160	6	96
HLD	68	160	7	96
TAP	69	0	5
TAP	69	96	3
TAP	69	192	4
TAP	69	256	4
HLD	70	0	0	96
HLD	70	0	1	96
HLD	70	160	0	96
HLD	70	160	1	96
TAP	71	0	2
TAP	71	96	4
TAP	71	192	3
TAP	71	256	3
HLD	72	0	6	96
HLD	72	0	7	96
HLD	72	160	6	96
HLD	72	160	7	96
BST	73	0	3
SCL	73	0	3	96	480	4
BST	73	0	4
SCR	73	0	4	96	480	3
TAP	75	0	1
TAP	75	96	0
TAP	75	96	1
TAP	75	192	6
TAP	75	288	6
TAP	75	288	7
TAP	76	0	1
TAP	76	96	0
TAP	76	96	1
TAP	76	192	6
TAP	76	288	6
TAP	76	288	7
HLD	77	0	1	192
TAP	77	96	0
HLD	77	192	6	192
TAP	77	288	7
HLD	78	0	1	192
TAP	78	96	0
HLD	78	192	6	192
TAP	78	288	7
HLD	79	0	2	192
TAP	79	96	0
HLD	79	192	5	192
TAP	79	288	7
HLD	80	0	2	192
TAP	80	96	0
HLD	80	192	5	192
TAP	80	288	7
TAP	81	0	1
TAP	81	96	2
TAP	81	192	3
TAP	81	288	1
TAP	81	288	4
TAP	82	0	6
TAP	82	96	5
TAP	82	192	4
TAP	82	288	3
TAP	82	288	6
TAP	83	0	1
TAP	83	96	2
TAP	83	192	3
TAP	83	288	0
TAP	83	288	4
TAP	84	0	6
TAP	84	96	5
TAP	84	192	4
TAP	84	288	3
TAP	84	288	7
TAP	85	0	1
TAP	85	48	0
TAP	85	96	1
TAP	85	192	6
TAP	85	240	7
TAP	85	288	6
TAP	86	0	2
TAP	86	48	3
TAP	86	96	2
TAP	86	192	5
TAP	86	240	4
TAP	86	288	5
TAP	87	0	2
TAP	87	48	0
TAP	87	96	2
TAP	87	192	5
TAP	87	240	7
TAP	87	288	5
TAP	88	0	1
TAP	88	48	3
TAP	88	96	1
TAP	88	192	6
TAP	88	240	4
TAP	88	288	6
TAP	89	0	0
TAP	89	0	1
TAP	89	96	7
TAP	89	192	6
TAP	89	288	5
TAP	90	0	4
TAP	90	96	3
TAP	90	192	2
TAP	90	288	1
TAP	91	0	0
BST	91	0	5
SI_	91	0	5	96	64	2
BST	91	192	6
SI_	91	192	6	96	64	1
BST	92	0	5
SI_	92	0	5	96	64	2
BST	92	192	6
SI_	92	192	6	96	64	1
TAP	93	0	7
TAP	93	96	6
TAP	93	192	5
TAP	93	288	4
TAP	94	0	3
TAP	94	96	2
TAP	94	192	1
TAP	94	288	0
BST	95	0	5
SI_	95	0	5	96	64	2
TAP	95	0	7
BST	95	192	6
SI_	95	192	6	96	64	1
BST	96	0	5
SI_	96	0	5	96	64	2
BST	96	192	6
SI_	96	192	6	96	64	1
TAP	97	0	4
TAP	97	96	1
TAP	97	96	5
TAP	97	192	2
TAP	97	192	6
TAP	97	288	3
TAP	97	288	7
TAP	98	0	2
TAP	98	0	6
TAP	98	96	1
TAP	98	96	5
TAP	98	192	0
TAP	98	192	4
TAP	98	256	0
TAP	98	256	4
HLD	98	352	0	128
HLD	98	352	4	128
HLD	99	192	1	96
HLD	99	192	5	96
HLD	100	0	2	96
HLD	100	0	6	96
HLD	100	192	3	96
HLD	100	192	7	96
BST	101	0	2
SXR	101	0	2	96	288	7
HLD	101	0	5	384
TAP	102	96	3
TAP	102	96	6
TAP	102	256	1
TAP	102	256	4
HLD	103	0	2	384
BST	103	0	5
SXL	103	0	5	96	288	0
TAP	104	96	1
TAP	104	192	0
TAP	104	256	0
BRK	105	0	3
BRK	105	0	7
BRK	105	96	0
BRK	105	96	4
BRK	105	192	2
BRK	105	192	6
BRK	105	288	1
BRK	105	288	5
BST	106	0	3
SV_	106	0	3	96	96	1
BST	106	0	7
SV_	106	0	7	96	96	5
STR	107	0	6
SCL	107	0	6	96	288	2
STR	108	0	0
SCL	108	0	0	96	288	4
STR	109	0	2
SCL	109	0	2	96	288	6
STR	110	0	4
SCL	110	0	4	96	256	0
TAP	110	352	6
TAP	111	96	6
TAP	111	96	7
TAP	111	192	0
TAP	111	192	6
TAP	111	288	1
TAP	111	288	6
TAP	112	0	1
TAP	112	96	0
TAP	112	96	1
TAP	112	192	1
TAP	112	192	7
TAP	112	288	1
TAP	112	288	6
HLD	113	0	6	96
HLD	113	0	7	96
TAP	113	192	0
TAP	113	192	1
BST	113	352	2
SCL	113	352	2	96	128	5
BRK	113	352	3
TAP	114	288	3
TAP	114	288	4
TAP	115	0	2
STR	115	0	5
SCR	115	0	5	96	96	0
STR	115	192	1
SCR	115	192	1	96	64	4
TAP	115	352	7
TAP	116	96	7
TAP	116	192	0
TAP	116	288	1
TAP	117	0	2
TAP	117	0	7
TAP	117	96	3
TAP	117	96	6
TAP	117	192	4
TAP	117	192	5
BST	117	352	4
SI_	117	352	4	96	96	1
BST	117	352	5
SI_	117	352	5	96	96	0
TAP	118	352	2
HLD	118	352	6	320
TAP	119	96	7
TAP	119	192	0
TAP	119	288	1
HLD	120	0	2	288
TAP	120	96	3
TAP	120	192	4
TAP	120	288	5
HLD	121	0	2	96
HLD	121	0	6	96
TAP	121	192	3
TAP	121	192	7
BST	121	352	0
SCL	121	352	0	96	128	5
BST	121	352	4
SCL	121	352	4	96	128	1
HLD	122	352	1	320
TAP	122	352	5
TAP	123	96	0
TAP	123	192	7
TAP	123	288	6
HLD	124	0	5	288
TAP	124	96	4
TAP	124	192	3
TAP	124	288	2
HLD	125	0	1	96
HLD	125	0	5	96
TAP	125	192	0
TAP	125	192	4
BST	125	352	3
SCR	125	352	3	96	128	6
BST	125	352	7
SCR	125	352	7	96	128	2
TAP	127	0	5
TAP	127	96	4
TAP	127	192	5
TAP	127	256	5
TAP	128	0	4
TAP	128	0	6
TAP	128	160	1
TAP	128	160	3
TAP	129	0	2
TAP	129	96	3
TAP	129	192	2
TAP	129	256	2
TAP	130	0	1
TAP	130	0	3
TAP	130	160	4
TAP	130	160	6
BRK	131	0	0
TAP	131	96	2
TAP	131	96	7
TAP	131	192	0
TAP	131	192	5
TAP	131	256	0
TAP	131	256	5
STR	132	0	6
SI_	132	0	6	96	64	3
STR	132	160	7
SI_	132	160	7	96	64	2
BRK	133	0	7
TAP	133	96	0
TAP	133	96	5
TAP	133	192	2
TAP	133	192	7
TAP	133	256	2
TAP	133	256	7
STR	134	0	1
SI_	134	0	1	96	64	4
STR	134	160	0
SI_	134	160	0	96	64	5
BST	135	0	3
SXR	135	0	3	96	480	0
BST	135	0	4
SXL	135	0	4	96	480	7
BST	137	0	0
SUL	137	0	0	96	672	7
BST	137	0	7
SCL	137	0	7	96	672	0

T_REC_TAP	363
T_REC_BRK	16
T_REC_XTP	0
T_REC_HLD	79
T_REC_XHO	0
T_REC_STR	41
T_REC_BST	29
T_REC_XST	0
T_REC_TTP	0
T_REC_THO	0
T_REC_SLD	70
T_REC_ALL	598
T_NUM_TAP	404
T_NUM_BRK	45
T_NUM_HLD	79
T_NUM_SLD	70
T_NUM_ALL	598
T_JUDGE_TAP	449
T_JUDGE_HLD	148
T_JUDGE_SLD	70
T_JUDGE_ALL	667
TTM_EACHPAIRS	149
TTM_SCR_TAP	202000
TTM_SCR_BRK	117000
TTM_SCR_HLD	79000
TTM_SCR_SLD	105000
TTM_SCR_ALL	503000
TTM_SCR_S	483550
TTM_SCR_SS	498500
TTM_RAT_ACV	10090

