VERSION	0.00.00	1.03.00
FES_MODE	0
BPM_DEF	260.000	260.000	260.000	260.000
MET_DEF	4	4
RESOLUTION	384
CLK_DEF	384
COMPATIBLE_CODE	MA2

BPM	0	0	260.000
MET	0	0	4	4

HLD	2	0	2	384
HLD	3	0	3	384
HLD	4	0	4	384
HLD	5	0	5	384
TAP	6	0	3
TAP	6	96	3
TAP	6	192	4
TAP	7	0	6
TAP	7	96	6
TAP	7	192	3
TAP	8	0	1
TAP	8	96	1
TAP	8	192	4
TAP	9	0	0
TAP	9	0	7
TAP	9	96	0
TAP	9	96	7
BRK	9	192	0
BRK	9	192	7
TAP	10	0	1
TAP	10	192	2
TAP	11	0	3
TAP	11	96	3
TAP	11	192	4
TAP	12	0	6
TAP	12	96	6
TAP	12	192	0
TAP	13	0	1
TAP	13	0	7
TAP	14	0	6
TAP	14	192	5
TAP	15	0	4
TAP	15	96	4
TAP	15	192	3
TAP	16	0	1
TAP	16	96	1
TAP	16	192	7
TAP	17	0	0
TAP	17	0	6
TAP	18	0	1
TAP	18	192	2
TAP	19	0	5
TAP	19	96	5
TAP	19	192	3
TAP	19	288	3
TAP	20	0	6
TAP	20	96	6
TAP	20	192	0
TAP	21	0	1
TAP	21	0	7
TAP	22	0	6
TAP	22	192	5
TAP	23	0	2
TAP	23	96	2
TAP	23	192	4
TAP	23	288	4
TAP	24	0	1
TAP	24	96	1
TAP	24	192	7
TAP	25	0	0
TAP	25	0	6
HLD	26	0	1	192
TAP	26	192	0
HLD	27	0	6	192
TAP	27	192	7
STR	28	0	5
SCL	28	0	5	96	192	2
STR	29	0	1
SCR	29	0	1	96	192	4
HLD	30	0	6	192
TAP	30	192	7
HLD	31	0	1	192
TAP	31	192	0
STR	32	0	2
SCR	32	0	2	96	192	5
STR	33	0	6
SCL	33	0	6	96	192	3
TAP	34	0	1
TAP	34	96	1
TAP	34	192	2
TAP	34	192	7
TAP	35	0	6
TAP	35	96	6
TAP	35	192	0
TAP	35	192	5
HLD	36	0	2	192
HLD	36	192	3	192
HLD	37	0	4	192
TAP	37	192	5
STR	38	0	6
SCR	38	0	6	96	192	1
TAP	39	0	2
TAP	39	96	2
STR	39	192	2
SUL	39	192	2	96	288	5
TAP	41	0	4
TAP	41	96	3
TAP	41	192	2
TAP	41	192	5
TAP	42	0	7
TAP	42	96	0
TAP	42	192	7
TAP	42	288	0
BRK	43	0	1
BRK	43	0	6
HLD	44	0	2	192
TAP	44	192	3
HLD	45	0	5	192
TAP	45	192	4
TAP	46	0	1
TAP	46	96	7
TAP	46	192	0
TAP	46	192	6
TAP	47	0	3
TAP	47	0	4
TAP	48	0	2
TAP	48	192	1
TAP	48	192	3
TAP	49	0	5
TAP	49	192	4
TAP	49	192	6
TAP	50	0	0
TAP	50	96	1
TAP	50	192	2
TAP	50	192	7
TAP	51	0	0
TAP	51	0	5
HLD	52	0	6	192
TAP	52	192	4
HLD	53	0	1	192
TAP	53	192	3
TAP	54	0	6
TAP	54	96	0
TAP	54	192	1
TAP	54	192	7
TAP	55	0	0
TAP	55	0	7
TAP	56	0	4
TAP	56	0	5
TAP	56	192	3
TAP	56	192	6
TAP	57	0	2
TAP	57	0	3
TAP	57	192	1
TAP	57	192	4
TAP	58	0	7
TAP	58	96	6
TAP	58	192	0
TAP	58	192	5
TAP	59	0	2
TAP	59	0	7
HLD	60	0	3	192
HLD	60	0	4	192
STR	61	0	3
SI_	61	0	3	96	192	0
STR	61	0	4
SI_	61	0	4	96	192	7
TAP	62	0	1
TAP	62	0	6
TAP	62	96	2
TAP	62	96	5
TAP	62	192	3
TAP	62	192	4
BST	63	0	0
SXL	63	0	0	96	480	3
BST	63	0	7
SXR	63	0	7	96	480	4
TAP	65	0	4
TAP	65	0	5
TAP	65	192	2
TAP	65	192	3
TAP	66	0	1
TAP	66	96	1
TAP	66	192	7
TAP	67	0	2
TAP	67	0	3
TAP	67	192	4
TAP	67	192	5
TAP	68	0	6
TAP	68	96	6
TAP	68	192	0
TAP	69	0	3
TAP	69	0	4
TAP	69	192	1
TAP	69	192	6
TAP	70	0	0
TAP	70	0	7
TAP	70	96	0
TAP	70	96	7
TAP	70	192	0
TAP	70	192	7
TAP	71	0	2
TAP	71	0	7
TAP	71	192	0
TAP	71	192	5
TAP	72	0	1
TAP	72	0	6
TAP	72	96	1
TAP	72	96	6
TAP	72	192	1
TAP	72	192	6
BRK	73	0	0
BRK	73	0	7
TAP	74	0	0
TAP	74	0	5
TAP	74	192	2
TAP	74	192	7
TAP	75	0	6
TAP	75	96	4
TAP	75	192	5
TAP	75	288	5
TAP	76	0	2
TAP	76	96	3
TAP	76	192	1
TAP	76	192	4
TAP	77	0	1
TAP	77	96	3
TAP	77	192	2
TAP	77	288	2
TAP	78	0	5
TAP	78	96	4
TAP	78	192	3
TAP	78	192	6
TAP	79	0	1
TAP	79	96	0
TAP	79	192	7
TAP	79	288	6
TAP	80	0	0
TAP	80	0	7
TAP	80	96	0
TAP	80	96	7
TAP	80	192	0
TAP	80	192	7
TAP	81	0	1
TAP	81	96	0
TAP	81	192	1
TAP	81	288	1
TAP	82	0	7
TAP	82	96	6
TAP	82	192	0
TAP	82	192	5
TAP	83	0	6
TAP	83	96	7
TAP	83	192	6
TAP	83	288	6
TAP	84	0	0
TAP	84	96	1
TAP	84	192	2
TAP	84	192	7
HLD	85	0	2	96
HLD	85	0	3	96
HLD	85	192	4	96
HLD	85	192	5	96
HLD	86	0	1	96
HLD	86	0	3	96
HLD	86	192	4	96
HLD	86	192	6	96
HLD	87	0	1	96
HLD	87	0	7	96
HLD	87	192	0	96
HLD	87	192	6	96
HLD	88	0	2	96
HLD	88	0	7	96
HLD	88	192	0	96
HLD	88	192	5	96
TAP	89	0	1
TAP	89	96	1
TAP	89	192	0
TAP	89	192	2
TAP	90	0	6
TAP	90	96	6
TAP	90	192	5
TAP	90	192	7
STR	91	0	6
SCR	91	0	6	96	192	1
STR	92	0	2
SCL	92	0	2	96	192	7
TAP	93	0	6
TAP	93	96	6
TAP	93	192	5
TAP	93	192	7
TAP	94	0	1
TAP	94	96	1
TAP	94	192	0
TAP	94	192	2
STR	95	0	1
SCL	95	0	1	96	192	6
STR	96	0	5
SCR	96	0	5	96	192	0
TAP	97	0	1
TAP	97	96	2
TAP	97	192	3
TAP	97	192	4
TAP	98	0	5
TAP	98	96	6
TAP	98	192	0
TAP	98	192	7
HLD	99	0	1	192
HLD	99	192	4	192
HLD	100	0	3	192
HLD	100	192	6	192
STR	101	0	7
SCR	101	0	7	96	192	2
STR	102	0	0
SCL	102	0	0	96	192	5
STR	103	0	2
SCR	103	0	2	96	192	5
TAP	104	0	6
TAP	104	0	7
TAP	104	192	0
TAP	104	192	1
TAP	105	0	0
TAP	105	0	7
TAP	105	96	1
TAP	105	96	6
TAP	105	192	2
TAP	105	192	5
TAP	105	288	3
TAP	105	288	4
BRK	106	0	1
BRK	106	0	6
STR	107	0	1
SI_	107	0	1	96	192	4
STR	108	0	5
SI_	108	0	5	96	192	0
STR	109	0	2
SI_	109	0	2	96	192	7
STR	110	0	6
SI_	110	0	6	96	192	3
TAP	111	0	2
TAP	111	96	2
TAP	111	192	4
TAP	111	288	3
TAP	112	0	5
TAP	112	96	5
TAP	112	192	3
TAP	112	288	4
HLD	113	0	3	192
TAP	113	192	4
TAP	114	0	1
TAP	114	0	6
TAP	115	0	1
TAP	115	96	1
TAP	115	192	7
TAP	115	288	7
TAP	116	0	0
TAP	116	96	0
TAP	116	192	6
TAP	116	288	6
TAP	117	0	1
TAP	117	96	0
TAP	117	192	7
TAP	117	288	6
TAP	118	0	0
TAP	118	0	5
TAP	119	0	6
TAP	119	96	6
TAP	119	192	3
TAP	119	288	3
TAP	120	0	4
TAP	120	96	4
TAP	120	192	1
TAP	120	288	1
TAP	121	0	6
TAP	121	96	7
TAP	121	192	0
TAP	121	288	1
TAP	122	0	2
TAP	122	0	7
TAP	123	0	0
TAP	123	0	7
TAP	123	96	0
TAP	123	96	7
TAP	123	192	1
TAP	123	192	6
TAP	123	288	1
TAP	123	288	6
TAP	124	0	2
TAP	124	0	5
TAP	124	96	2
TAP	124	96	5
TAP	124	192	3
TAP	124	192	4
BRK	125	0	0
BRK	125	0	4
BRK	125	192	3
BRK	125	192	7
BRK	126	0	1
BRK	126	0	6
HLD	127	0	2	192
TAP	127	96	3
TAP	127	192	3
HLD	128	0	5	192
TAP	128	96	4
TAP	128	192	4
HLD	129	0	1	192
TAP	129	96	2
TAP	129	192	2
HLD	130	0	6	192
TAP	130	96	5
TAP	130	192	5
HLD	131	0	1	192
TAP	131	96	0
TAP	131	192	0
HLD	132	0	6	192
TAP	132	96	7
TAP	132	192	7
HLD	133	0	0	192
TAP	133	96	7
TAP	133	192	7
TAP	134	0	1
TAP	134	0	6
TAP	134	96	1
TAP	134	96	6
TAP	134	192	2
TAP	134	192	5
TAP	134	288	2
TAP	134	288	5
STR	135	0	3
SXR	135	0	3	96	576	0
STR	135	0	4
SXL	135	0	4	96	576	7
BRK	137	0	1
BRK	137	0	6

T_REC_TAP	317
T_REC_BRK	16
T_REC_XTP	0
T_REC_HLD	45
T_REC_XHO	0
T_REC_STR	21
T_REC_BST	2
T_REC_XST	0
T_REC_TTP	0
T_REC_THO	0
T_REC_SLD	23
T_REC_ALL	424
T_NUM_TAP	338
T_NUM_BRK	18
T_NUM_HLD	45
T_NUM_SLD	23
T_NUM_ALL	424
T_JUDGE_TAP	356
T_JUDGE_HLD	82
T_JUDGE_SLD	23
T_JUDGE_ALL	461
TTM_EACHPAIRS	95
TTM_SCR_TAP	169000
TTM_SCR_BRK	46800
TTM_SCR_HLD	45000
TTM_SCR_SLD	34500
TTM_SCR_ALL	295300
TTM_SCR_S	284700
TTM_SCR_SS	293500
TTM_RAT_ACV	10061

