VERSION	0.00.00	1.03.00
FES_MODE	0
BPM_DEF	260.000	260.000	260.000	260.000
MET_DEF	4	4
RESOLUTION	384
CLK_DEF	384
COMPATIBLE_CODE	MA2

BPM	0	0	260.000
MET	0	0	4	4

TAP	6	0	3
TAP	7	0	3
TAP	8	0	3
TAP	9	0	3
TAP	10	0	4
TAP	10	192	4
TAP	11	0	4
TAP	12	0	5
TAP	12	192	5
TAP	13	0	5
TAP	14	0	6
TAP	14	192	6
TAP	15	0	7
TAP	15	192	7
TAP	16	0	0
TAP	16	192	0
TAP	17	0	0
TAP	17	0	7
TAP	18	0	0
TAP	18	192	0
TAP	19	0	0
TAP	20	0	1
TAP	20	192	1
TAP	21	0	1
TAP	22	0	2
TAP	22	192	2
TAP	23	0	3
TAP	23	192	3
TAP	24	0	4
TAP	24	192	4
TAP	25	0	3
TAP	25	0	4
HLD	26	0	2	192
HLD	27	0	1	192
STR	28	0	0
SI_	28	0	0	96	288	3
HLD	30	0	5	192
HLD	31	0	6	192
STR	32	0	7
SI_	32	0	7	96	288	4
TAP	34	0	2
TAP	34	192	2
TAP	35	0	1
TAP	35	192	1
TAP	36	0	0
TAP	36	192	0
TAP	37	0	0
TAP	37	0	7
TAP	38	0	6
TAP	39	0	6
TAP	39	0	7
TAP	40	0	5
TAP	41	0	4
TAP	41	0	5
TAP	42	0	3
TAP	42	0	4
TAP	42	192	3
TAP	42	192	4
BRK	43	0	2
BRK	43	0	5
TAP	44	0	3
TAP	44	192	3
TAP	45	0	3
TAP	46	0	2
TAP	46	192	2
TAP	47	0	2
TAP	48	0	1
TAP	48	192	1
TAP	49	0	0
TAP	49	192	0
TAP	50	0	7
TAP	50	192	0
TAP	51	0	7
TAP	52	0	7
TAP	52	192	7
TAP	53	0	7
TAP	54	0	6
TAP	54	192	6
TAP	55	0	6
TAP	56	0	5
TAP	56	192	5
TAP	57	0	4
TAP	57	192	4
TAP	58	0	3
TAP	58	192	4
BRK	59	0	3
TAP	60	0	2
TAP	60	0	3
TAP	61	0	4
TAP	61	0	5
TAP	62	0	3
TAP	62	0	4
TAP	62	192	3
TAP	62	192	4
BRK	63	0	2
BRK	63	0	5
TAP	65	0	3
TAP	65	192	3
TAP	66	0	2
TAP	66	0	4
TAP	67	0	4
TAP	67	192	4
TAP	68	0	3
TAP	68	0	5
TAP	69	0	2
TAP	69	192	2
TAP	70	0	1
TAP	70	0	3
TAP	71	0	5
TAP	71	192	5
TAP	72	0	4
TAP	72	0	6
STR	73	0	6
SI_	73	0	6	96	288	2
STR	75	0	1
SI_	75	0	1	96	288	5
TAP	77	0	6
TAP	77	192	6
TAP	78	0	7
TAP	78	192	7
TAP	79	0	0
TAP	79	192	0
TAP	80	0	1
TAP	80	192	1
STR	81	0	1
SI_	81	0	1	96	288	5
STR	83	0	6
SI_	83	0	6	96	288	2
TAP	85	0	1
TAP	85	192	1
TAP	86	0	0
TAP	86	192	0
TAP	87	0	7
TAP	87	192	7
TAP	88	0	6
TAP	88	192	6
TAP	89	0	5
TAP	89	192	5
TAP	90	0	4
TAP	90	192	4
HLD	91	0	3	384
HLD	91	0	5	384
TAP	93	0	2
TAP	93	192	2
TAP	94	0	3
TAP	94	192	3
HLD	95	0	2	384
HLD	95	0	4	384
TAP	97	0	3
TAP	97	192	3
TAP	98	0	4
TAP	98	192	4
TAP	99	0	3
TAP	99	0	4
TAP	99	192	3
TAP	99	192	4
TAP	100	0	2
TAP	100	0	5
TAP	101	0	3
TAP	101	192	3
TAP	102	0	4
TAP	102	192	4
TAP	103	0	5
TAP	103	192	5
TAP	104	0	6
TAP	104	192	6
TAP	105	0	0
TAP	105	0	7
TAP	105	192	0
TAP	105	192	7
BRK	106	0	1
BRK	106	0	6
TAP	107	0	2
TAP	108	0	2
TAP	109	0	3
TAP	110	0	3
TAP	111	0	4
TAP	112	0	4
TAP	113	0	5
TAP	113	192	5
TAP	114	0	5
TAP	115	0	6
TAP	115	0	7
TAP	115	192	6
TAP	115	192	7
TAP	116	0	0
TAP	116	0	5
TAP	117	0	4
TAP	117	0	5
TAP	117	192	4
TAP	117	192	5
TAP	118	0	3
TAP	118	0	6
TAP	119	0	2
TAP	119	0	3
TAP	119	192	2
TAP	119	192	3
TAP	120	0	1
TAP	120	0	4
TAP	121	0	0
TAP	121	0	1
TAP	121	192	0
TAP	121	192	1
TAP	122	0	2
TAP	122	0	7
TAP	123	0	0
TAP	123	0	6
TAP	123	192	0
TAP	123	192	6
TAP	124	0	1
TAP	124	0	7
TAP	124	192	1
TAP	124	192	7
TAP	125	0	0
TAP	125	0	7
TAP	125	192	1
TAP	125	192	6
BRK	126	0	2
BRK	126	0	5
STR	127	0	1
SI_	127	0	1	96	288	4
STR	129	0	6
SI_	129	0	6	96	288	3
STR	131	0	0
SI_	131	0	0	96	288	4
STR	133	0	7
SI_	133	0	7	96	288	3
HLD	135	0	0	576
HLD	135	0	7	576
BRK	137	0	1
BRK	137	0	6

T_REC_TAP	190
T_REC_BRK	11
T_REC_XTP	0
T_REC_HLD	10
T_REC_XHO	0
T_REC_STR	10
T_REC_BST	0
T_REC_XST	0
T_REC_TTP	0
T_REC_THO	0
T_REC_SLD	10
T_REC_ALL	231
T_NUM_TAP	200
T_NUM_BRK	11
T_NUM_HLD	10
T_NUM_SLD	10
T_NUM_ALL	231
T_JUDGE_TAP	211
T_JUDGE_HLD	36
T_JUDGE_SLD	10
T_JUDGE_ALL	257
TTM_EACHPAIRS	46
TTM_SCR_TAP	100000
TTM_SCR_BRK	28600
TTM_SCR_HLD	10000
TTM_SCR_SLD	15000
TTM_SCR_ALL	153600
TTM_SCR_S	147950
TTM_SCR_SS	152500
TTM_RAT_ACV	10072

