VERSION	0.00.00	1.03.00
FES_MODE	0
BPM_DEF	155.000	155.000	155.000	155.000
MET_DEF	4	4
RESOLUTION	384
CLK_DEF	384
COMPATIBLE_CODE	MA2

BPM	0	0	155.000
MET	0	0	4	4

STR	2	0	0
SI_	2	0	0	96	48	3
STR	2	96	0
SI_	2	96	0	96	48	5
TAP	2	192	0
TAP	2	288	2
TAP	2	336	1
TAP	2	336	3
TAP	3	48	5
TAP	3	96	4
STR	3	96	6
SI_	3	96	6	96	48	3
BRK	3	192	6
TAP	3	288	2
TAP	3	336	3
TAP	4	0	1
TAP	4	48	5
TAP	4	96	4
STR	4	144	6
SCL	4	144	6	96	48	3
TAP	4	240	0
TAP	4	288	0
TAP	4	336	1
STR	5	0	1
SCL	5	0	1	96	96	6
STR	5	96	6
SCL	5	96	6	96	96	3
STR	5	192	3
SI_	5	192	3	96	48	0
SI_	5	192	3	96	48	6
STR	6	0	7
SI_	6	0	7	96	48	4
STR	6	96	7
SI_	6	96	7	96	48	2
TAP	6	192	7
TAP	6	288	5
TAP	6	336	4
TAP	6	336	6
TAP	7	48	2
STR	7	96	1
SI_	7	96	1	96	48	4
TAP	7	96	3
BRK	7	192	1
TAP	7	288	5
TAP	7	336	4
TAP	7	336	5
TAP	8	0	2
TAP	8	48	2
TAP	8	48	3
TAP	8	96	5
TAP	8	144	4
TAP	8	144	6
TAP	8	192	2
TAP	8	240	1
TAP	8	240	3
TAP	8	288	2
TAP	8	288	5
TAP	8	336	4
TAP	8	336	6
STR	9	0	1
SI_	9	0	1	96	48	5
TAP	9	0	3
TAP	9	96	1
STR	9	96	6
SI_	9	96	6	96	48	2
STR	9	192	0
SI_	9	192	0	96	48	4
TAP	9	192	6
TAP	9	288	0
TAP	9	288	7
TAP	10	0	5
TAP	10	24	4
TAP	10	48	5
TAP	10	72	2
TAP	10	96	3
TAP	10	120	2
HLD	10	144	6	96
TAP	10	240	7
TAP	10	264	6
TAP	10	288	0
TAP	10	312	5
TAP	10	336	1
TAP	10	360	4
TAP	11	0	2
TAP	11	24	3
TAP	11	48	2
TAP	11	72	5
TAP	11	96	4
TAP	11	120	5
HLD	11	144	1	96
TAP	11	240	0
TAP	11	264	1
TAP	11	288	7
TAP	11	312	2
TAP	11	336	6
TAP	11	360	3
TAP	12	0	5
TAP	12	24	4
TAP	12	48	5
TAP	12	72	2
TAP	12	96	3
TAP	12	120	2
HLD	12	144	5	96
TAP	12	240	3
TAP	12	264	4
TAP	12	288	2
TAP	12	288	5
TAP	13	0	1
TAP	13	0	3
TAP	13	72	4
TAP	13	72	6
TAP	13	144	1
TAP	13	144	6
TAP	13	216	3
TAP	13	216	4
TAP	13	288	1
TAP	13	288	6
TAP	13	336	1
TAP	13	336	6
TAP	14	0	0
TAP	14	96	4
TAP	14	96	5
TAP	14	192	1
TAP	14	192	3
TAP	14	288	6
TAP	14	336	0
TAP	14	360	0
TAP	15	0	7
TAP	15	96	2
TAP	15	96	3
TAP	15	192	4
TAP	15	192	6
TAP	15	288	1
TAP	15	336	7
TAP	15	360	7
TAP	16	0	0
TAP	16	96	4
TAP	16	96	5
TAP	16	192	1
TAP	16	192	3
TAP	16	288	6
TAP	16	336	0
TAP	16	360	0
TAP	17	0	7
TAP	17	96	2
TAP	17	96	5
TAP	17	192	3
TAP	17	192	4
TAP	17	240	1
TAP	17	240	6
TAP	17	288	5
TAP	17	312	4
TAP	17	336	5
TAP	18	0	0
TAP	18	96	4
TAP	18	96	5
TAP	18	192	0
TAP	18	192	2
TAP	18	288	5
TAP	18	288	7
TAP	18	336	6
TAP	18	360	6
TAP	19	0	7
TAP	19	96	2
TAP	19	96	3
TAP	19	192	5
TAP	19	192	7
TAP	19	288	0
TAP	19	288	2
TAP	19	336	1
TAP	19	360	1
TAP	20	0	0
TAP	20	96	4
TAP	20	96	5
TAP	20	192	0
TAP	20	192	2
TAP	20	288	5
TAP	20	288	7
TAP	20	336	6
TAP	20	360	6
TAP	21	0	7
TAP	21	96	2
TAP	21	96	7
TAP	21	192	4
TAP	21	192	6
TAP	21	240	1
TAP	21	240	3
TAP	21	288	2
TAP	21	312	3
TAP	21	336	2
STR	22	0	0
SI_	22	0	0	96	48	4
TAP	22	0	6
TAP	22	96	0
TAP	22	96	5
TAP	22	192	1
TAP	22	192	3
TAP	22	288	5
TAP	22	288	7
TAP	22	336	1
TAP	22	360	1
STR	23	0	7
SI_	23	0	7	96	48	3
TAP	23	96	2
TAP	23	96	7
TAP	23	192	4
TAP	23	192	6
TAP	23	288	0
TAP	23	288	2
TAP	23	336	6
TAP	23	360	6
STR	24	0	0
SI_	24	0	0	96	48	4
TAP	24	96	0
TAP	24	96	5
TAP	24	192	1
TAP	24	192	3
TAP	24	288	5
TAP	24	288	7
TAP	24	336	1
TAP	24	360	1
STR	25	0	7
SI_	25	0	7	96	48	3
STR	25	96	0
SI_	25	96	0	96	48	4
TAP	25	96	7
TAP	25	192	5
TAP	25	240	5
TAP	25	288	3
TAP	25	312	4
TAP	25	336	3
STR	26	0	0
SI_	26	0	0	96	48	4
TAP	26	0	6
STR	26	96	0
SI_	26	96	0	96	48	2
SI_	26	96	0	96	48	6
TAP	26	192	0
TAP	26	288	3
TAP	26	288	5
TAP	26	336	0
TAP	26	360	0
TAP	27	0	1
STR	27	0	7
SI_	27	0	7	96	48	3
STR	27	96	7
SI_	27	96	7	96	48	1
SI_	27	96	7	96	48	5
TAP	27	192	7
TAP	27	288	2
TAP	27	288	4
TAP	27	336	7
TAP	27	360	7
STR	28	0	0
SI_	28	0	0	96	48	4
TAP	28	0	6
STR	28	96	0
SI_	28	96	0	96	48	2
SI_	28	96	0	96	48	6
TAP	28	192	0
TAP	28	288	3
TAP	28	288	5
TAP	28	336	0
TAP	28	360	0
TAP	29	0	1
STR	29	0	7
SI_	29	0	7	96	48	3
STR	29	96	7
SI_	29	96	7	96	48	1
SI_	29	96	7	96	48	5
TAP	29	192	7
TAP	29	288	3
TAP	29	288	4
STR	30	0	4
SXR	30	0	4	96	192	1
TAP	30	0	6
TAP	30	144	0
TAP	30	192	7
TAP	30	240	6
TAP	30	288	5
TAP	31	0	1
STR	31	0	3
SXL	31	0	3	96	192	6
TAP	31	144	7
TAP	31	192	0
TAP	31	240	1
TAP	31	288	2
HLD	32	0	0	96
HLD	32	0	7	96
TAP	32	144	2
TAP	32	144	5
TAP	32	192	6
TAP	32	240	4
TAP	32	288	5
TAP	32	336	1
TAP	33	0	3
TAP	33	48	2
BST	33	192	0
SI_	33	192	0	96	48	3
TAP	33	192	2
BRK	33	288	0
BST	33	288	7
SI_	33	288	7	96	48	4
TAP	34	0	5
BRK	34	0	7
TAP	34	144	2
TAP	34	192	1
TAP	34	192	3
TAP	34	240	0
TAP	34	240	7
TAP	34	288	5
TAP	34	336	4
TAP	34	336	6
TAP	35	48	3
TAP	35	48	4
TAP	35	96	2
TAP	35	96	5
TAP	35	144	1
TAP	35	144	6
TAP	35	288	0
TAP	35	288	7
TAP	35	336	1
TAP	36	0	0
TAP	36	0	2
TAP	36	96	6
TAP	36	144	5
BST	36	144	7
SI_	36	144	7	96	48	4
BST	36	240	0
SI_	36	240	0	96	48	3
BRK	36	240	7
BRK	36	336	0
STR	36	336	2
SXL	36	336	2	96	144	5
TAP	37	288	1
TAP	37	288	6
TAP	38	0	5
STR	38	0	7
SI_	38	0	7	96	48	3
STR	38	96	7
SI_	38	96	7	96	48	1
SI_	38	96	7	96	48	5
TAP	38	192	7
TAP	38	288	6
TAP	38	336	5
TAP	38	336	7
TAP	39	0	3
TAP	39	0	4
TAP	39	48	1
STR	39	96	0
SI_	39	96	0	96	48	3
SI_	39	96	0	96	48	5
TAP	39	96	2
BRK	39	192	0
TAP	39	288	4
TAP	39	336	3
TAP	39	336	5
TAP	40	0	2
TAP	40	0	6
TAP	40	48	3
TAP	40	96	2
TAP	40	96	4
STR	40	144	1
SCR	40	144	1	96	48	4
TAP	40	144	5
TAP	40	240	1
TAP	40	240	6
TAP	40	288	7
TAP	40	336	1
TAP	40	336	6
STR	41	0	0
SI_	41	0	0	96	48	5
TAP	41	0	2
STR	41	96	0
SI_	41	96	0	96	48	3
TAP	41	96	6
TAP	41	192	0
TAP	41	192	2
TAP	41	288	0
TAP	41	288	4
STR	42	0	0
SI_	42	0	0	96	48	4
TAP	42	0	2
STR	42	96	0
SI_	42	96	0	96	48	2
SI_	42	96	0	96	48	6
TAP	42	192	0
TAP	42	288	1
TAP	42	336	0
TAP	42	336	2
TAP	43	0	3
TAP	43	0	4
TAP	43	48	6
TAP	43	96	5
STR	43	96	7
SI_	43	96	7	96	48	2
SI_	43	96	7	96	48	4
BRK	43	192	7
TAP	43	288	3
TAP	43	336	2
TAP	43	336	4
TAP	44	0	4
TAP	44	48	3
TAP	44	48	5
TAP	44	96	2
TAP	44	144	1
TAP	44	144	3
TAP	44	192	5
TAP	44	240	4
TAP	44	240	6
TAP	44	288	1
TAP	44	336	0
TAP	44	336	2
TAP	45	0	5
STR	45	0	7
SI_	45	0	7	96	48	2
TAP	45	96	1
STR	45	96	7
SI_	45	96	7	96	48	4
TAP	45	192	5
STR	45	192	7
SI_	45	192	7	96	48	3
TAP	45	288	1
TAP	45	288	7
TAP	46	0	2
TAP	46	24	3
TAP	46	48	2
TAP	46	72	5
TAP	46	96	4
TAP	46	120	5
HLD	46	144	2	96
TAP	46	240	0
TAP	46	264	1
TAP	46	288	7
TAP	46	312	2
TAP	46	336	6
TAP	46	360	3
TAP	47	0	5
TAP	47	24	4
TAP	47	48	5
TAP	47	72	2
TAP	47	96	3
TAP	47	120	2
HLD	47	144	5	96
TAP	47	240	7
TAP	47	264	6
TAP	47	288	0
TAP	47	312	5
TAP	47	336	1
TAP	47	360	4
TAP	48	0	2
TAP	48	24	3
TAP	48	48	2
TAP	48	72	5
TAP	48	96	4
TAP	48	120	5
HLD	48	144	2	96
TAP	48	240	4
TAP	48	264	3
TAP	48	288	1
TAP	48	288	6
TAP	49	0	5
TAP	49	0	7
TAP	49	72	0
TAP	49	72	2
TAP	49	144	1
TAP	49	144	6
TAP	49	216	3
TAP	49	216	4
TAP	49	288	1
TAP	49	288	6
TAP	49	336	1
TAP	49	336	6
HLD	50	0	0	144
TAP	50	0	7
TAP	50	144	1
HLD	50	192	1	96
TAP	50	288	2
HLD	50	336	2	240
HLD	51	192	6	96
HLD	51	288	5	96
HLD	52	0	4	96
TAP	52	96	3
HLD	52	144	3	96
HLD	52	240	4	96
STR	52	336	1
SXR	52	336	1	96	240	6
TAP	54	0	0
HLD	54	0	7	144
TAP	54	144	6
HLD	54	192	6	96
TAP	54	288	5
HLD	54	336	5	192
TAP	55	144	1
HLD	55	192	1	96
HLD	55	288	2	96
HLD	56	0	3	96
TAP	56	96	4
HLD	56	144	2	96
HLD	56	144	5	96
TAP	56	336	0
TAP	56	336	7
TAP	57	48	0
TAP	57	48	7
TAP	57	96	1
TAP	57	96	6
TAP	57	192	3
TAP	57	240	4
TAP	57	288	3
HLD	57	336	2	192
HLD	57	336	5	192
TAP	58	240	0
TAP	58	288	1
TAP	58	288	7
TAP	58	336	2
TAP	58	336	6
TAP	59	144	3
TAP	59	144	4
TAP	59	240	7
TAP	59	288	0
TAP	59	288	6
STR	59	336	1
SI_	59	336	1	96	240	6
STR	59	336	5
SI_	59	336	5	96	240	2
TAP	61	0	0
TAP	61	96	7
TAP	61	192	6
TAP	61	288	5
TAP	61	336	4
TAP	61	336	5
TAP	62	48	2
TAP	62	96	2
TAP	62	96	3
STR	62	192	0
SI_	62	192	0	96	96	4
STR	63	0	6
SCL	63	0	6	96	96	3
STR	63	192	1
SCR	63	192	1	96	96	4
STR	64	0	7
SSR	64	0	7	96	96	3
STR	64	192	1
SI_	64	192	1	96	48	5
TAP	65	0	7
TAP	65	96	0
TAP	65	192	1
TAP	65	288	2
TAP	65	336	2
TAP	65	336	3
TAP	66	48	5
TAP	66	96	4
TAP	66	96	5
STR	66	192	7
SI_	66	192	7	96	96	3
STR	67	0	1
SCR	67	0	1	96	96	4
STR	67	192	6
SCL	67	192	6	96	96	3
STR	68	0	0
SSL	68	0	0	96	96	4
STR	68	192	6
SI_	68	192	6	96	48	2
STR	69	0	0
SCR	69	0	0	96	48	3
STR	69	0	4
SCR	69	0	4	96	48	7
STR	69	96	0
SF_	69	96	0	96	48	4
TAP	69	96	4
TAP	69	192	0
TAP	69	288	3
TAP	69	288	6
TAP	69	336	5
TAP	69	360	4
TAP	70	0	5
TAP	70	48	2
TAP	70	48	7
STR	70	96	0
SI_	70	96	0	96	48	4
STR	70	96	5
SI_	70	96	5	96	48	7
BRK	70	192	0
BRK	70	192	5
TAP	70	288	1
TAP	70	288	3
TAP	70	336	4
TAP	70	336	6
STR	71	0	0
SI_	71	0	0	96	48	4
TAP	71	48	5
TAP	71	96	0
STR	71	144	7
SI_	71	144	7	96	48	3
TAP	71	192	2
TAP	71	240	7
TAP	71	288	0
TAP	71	336	5
TAP	71	336	7
STR	72	0	0
SI_	72	0	0	96	48	3
TAP	72	0	2
STR	72	96	0
SI_	72	96	0	96	48	5
TAP	72	96	6
TAP	72	192	0
TAP	72	192	2
TAP	72	288	0
TAP	72	288	4
STR	73	0	3
SCL	73	0	3	96	48	0
STR	73	0	7
SCL	73	0	7	96	48	4
TAP	73	96	3
STR	73	96	7
SF_	73	96	7	96	48	3
TAP	73	192	7
TAP	73	288	1
TAP	73	288	4
TAP	73	336	2
TAP	73	360	3
TAP	74	0	2
TAP	74	48	0
TAP	74	48	5
STR	74	96	2
SI_	74	96	2	96	48	0
STR	74	96	7
SI_	74	96	7	96	48	3
BRK	74	192	2
BRK	74	192	7
TAP	74	288	4
TAP	74	288	6
TAP	74	336	1
TAP	74	336	3
STR	75	0	7
SI_	75	0	7	96	48	3
TAP	75	48	2
TAP	75	96	7
STR	75	144	0
SI_	75	144	0	96	48	4
TAP	75	192	5
TAP	75	240	0
TAP	75	288	7
TAP	75	336	0
TAP	75	336	2
TAP	76	0	5
STR	76	0	7
SI_	76	0	7	96	48	4
TAP	76	96	1
STR	76	96	7
SI_	76	96	7	96	48	2
TAP	76	192	5
STR	76	192	7
SI_	76	192	7	96	48	3
TAP	76	288	1
TAP	76	288	7
TAP	77	0	1
TAP	77	0	4
TAP	77	48	2
TAP	77	72	3
TAP	77	96	2
TAP	77	144	1
TAP	77	144	3
TAP	77	192	3
TAP	77	192	4
TAP	77	240	6
TAP	77	288	3
TAP	77	288	4
TAP	77	336	1
TAP	78	0	3
TAP	78	0	6
TAP	78	48	5
TAP	78	72	4
TAP	78	96	5
TAP	78	144	4
TAP	78	144	6
TAP	78	192	3
TAP	78	192	4
TAP	78	240	1
TAP	78	288	3
TAP	78	288	4
TAP	78	336	6
TAP	79	0	1
TAP	79	0	3
TAP	79	48	2
TAP	79	72	3
TAP	79	96	2
TAP	79	144	1
TAP	79	144	4
TAP	79	192	3
TAP	79	192	4
TAP	79	240	6
TAP	79	288	3
TAP	79	288	4
TAP	79	336	1
TAP	80	0	4
TAP	80	0	6
TAP	80	48	5
TAP	80	72	4
TAP	80	96	5
TAP	80	144	3
TAP	80	144	6
TAP	80	192	0
TAP	80	216	7
TAP	80	240	0
TAP	80	264	7
TAP	80	288	1
TAP	80	288	6
TAP	80	336	0
TAP	80	336	7
STR	81	0	6
SI_	81	0	6	96	48	3
TAP	81	48	6
STR	81	96	7
SI_	81	96	7	96	48	2
TAP	81	144	7
TAP	81	192	0
TAP	81	240	0
STR	81	336	1
SI_	81	336	1	96	48	4
TAP	81	336	4
TAP	82	48	7
STR	82	96	7
SI_	82	96	7	96	48	4
STR	82	192	0
SF_	82	192	0	96	48	4
TAP	82	192	7
BRK	82	288	0
STR	83	0	1
SI_	83	0	1	96	48	4
TAP	83	48	1
STR	83	96	0
SI_	83	96	0	96	48	5
TAP	83	144	0
TAP	83	192	7
TAP	83	240	7
TAP	83	336	3
STR	83	336	6
SI_	83	336	6	96	48	3
TAP	84	48	0
STR	84	96	0
SI_	84	96	0	96	48	3
TAP	84	192	0
STR	84	192	7
SF_	84	192	7	96	48	3
BRK	84	288	7
TAP	85	0	2
TAP	85	24	3
TAP	85	48	2
TAP	85	72	5
TAP	85	96	4
TAP	85	120	5
HLD	85	144	1	96
TAP	85	240	0
TAP	85	264	1
TAP	85	288	7
TAP	85	312	2
TAP	85	336	6
TAP	85	360	3
TAP	86	0	5
TAP	86	24	4
TAP	86	48	5
TAP	86	72	2
TAP	86	96	3
TAP	86	120	2
HLD	86	144	6	96
TAP	86	240	7
TAP	86	264	6
TAP	86	288	0
TAP	86	312	5
TAP	86	336	1
TAP	86	360	4
TAP	87	0	2
TAP	87	24	3
TAP	87	48	1
TAP	87	72	5
TAP	87	96	4
TAP	87	120	6
HLD	87	144	1	96
TAP	87	240	0
TAP	87	264	1
TAP	87	288	7
TAP	87	312	2
TAP	87	336	6
TAP	87	360	3
TAP	88	0	4
TAP	88	0	5
TAP	88	72	1
TAP	88	72	4
TAP	88	144	2
TAP	88	144	3
TAP	88	216	3
TAP	88	216	6
TAP	88	288	0
TAP	88	288	7
TAP	88	336	1
TAP	88	336	6
TAP	89	0	2
TAP	89	24	3
TAP	89	48	1
TAP	89	72	5
TAP	89	96	4
TAP	89	120	6
HLD	89	144	1	96
TAP	89	240	0
TAP	89	264	1
TAP	89	288	7
TAP	89	312	2
TAP	89	336	6
TAP	89	360	3
TAP	90	0	5
TAP	90	24	4
TAP	90	48	6
TAP	90	72	2
TAP	90	96	3
TAP	90	120	1
HLD	90	144	6	96
TAP	90	240	7
TAP	90	264	6
TAP	90	288	0
TAP	90	312	5
TAP	90	336	1
TAP	90	360	4
TAP	91	0	2
TAP	91	24	3
TAP	91	48	0
TAP	91	72	5
TAP	91	96	4
TAP	91	120	7
HLD	91	144	1	96
TAP	91	240	0
TAP	91	264	1
TAP	91	288	7
TAP	91	312	2
TAP	91	336	6
TAP	91	360	3
TAP	92	0	4
TAP	92	0	5
TAP	92	72	0
TAP	92	72	5
TAP	92	144	2
TAP	92	144	3
TAP	92	216	2
TAP	92	216	7
TAP	92	288	3
TAP	92	288	4
STR	92	336	1
SCR	92	336	1	96	528	7
STR	92	336	6
SCL	92	336	6	96	528	0

T_REC_TAP	617
T_REC_BRK	14
T_REC_XTP	0
T_REC_HLD	32
T_REC_XHO	0
T_REC_STR	85
T_REC_BST	4
T_REC_XST	0
T_REC_TTP	0
T_REC_THO	0
T_REC_SLD	98
T_REC_ALL	850
T_NUM_TAP	702
T_NUM_BRK	18
T_NUM_HLD	32
T_NUM_SLD	98
T_NUM_ALL	850
T_JUDGE_TAP	720
T_JUDGE_HLD	75
T_JUDGE_SLD	98
T_JUDGE_ALL	893
TTM_EACHPAIRS	188
TTM_SCR_TAP	351000
TTM_SCR_BRK	46800
TTM_SCR_HLD	32000
TTM_SCR_SLD	147000
TTM_SCR_ALL	576800
TTM_SCR_S	557750
TTM_SCR_SS	575000
TTM_RAT_ACV	10031

