VERSION	0.00.00	1.03.00
FES_MODE	0
BPM_DEF	155.000	155.000	155.000	155.000
MET_DEF	4	4
RESOLUTION	384
CLK_DEF	384
COMPATIBLE_CODE	MA2

BPM	0	0	155.000
MET	0	0	4	4

TAP	2	0	6
TAP	2	0	7
TAP	2	96	4
TAP	2	96	5
TAP	2	192	2
TAP	2	192	3
TAP	2	288	0
TAP	2	288	1
TAP	2	336	2
TAP	2	336	7
TAP	3	48	6
TAP	3	48	7
STR	3	96	0
SI_	3	96	0	96	48	2
STR	3	96	5
SI_	3	96	5	96	48	3
TAP	3	288	5
TAP	3	336	5
HLD	4	0	2	96
HLD	4	96	3	96
HLD	4	192	4	96
HLD	4	288	5	96
TAP	5	0	2
TAP	5	96	3
TAP	5	96	4
TAP	5	192	6
TAP	5	192	7
TAP	6	0	0
TAP	6	0	1
TAP	6	96	2
TAP	6	96	3
TAP	6	192	4
TAP	6	192	5
TAP	6	288	6
TAP	6	288	7
TAP	6	336	0
TAP	6	336	5
TAP	7	48	0
TAP	7	48	1
STR	7	96	2
SI_	7	96	2	96	48	4
STR	7	96	7
SI_	7	96	7	96	48	5
TAP	7	288	2
TAP	7	336	2
HLD	8	0	5	96
HLD	8	96	4	96
HLD	8	192	3	96
HLD	8	288	2	96
TAP	9	0	5
TAP	9	96	3
TAP	9	96	4
TAP	9	192	0
TAP	9	192	1
TAP	9	288	1
TAP	9	288	6
TAP	10	0	3
TAP	10	0	4
TAP	10	48	2
TAP	10	72	3
TAP	10	120	5
TAP	10	144	4
TAP	10	240	0
TAP	10	288	1
TAP	10	288	7
TAP	11	0	3
TAP	11	0	4
TAP	11	48	5
TAP	11	72	4
TAP	11	120	2
TAP	11	144	3
TAP	11	240	7
TAP	11	288	0
TAP	11	288	6
TAP	12	0	3
TAP	12	0	4
TAP	12	48	1
TAP	12	72	3
TAP	12	120	6
TAP	12	144	4
TAP	12	240	0
TAP	12	240	1
TAP	12	288	2
TAP	12	288	7
TAP	13	0	1
TAP	13	0	3
TAP	13	72	2
TAP	13	72	5
STR	13	144	4
SI_	13	144	4	96	96	1
STR	13	144	6
SI_	13	144	6	96	96	3
TAP	14	0	6
TAP	14	48	7
TAP	14	96	0
TAP	14	96	5
STR	14	192	5
SCR	14	192	5	96	48	0
TAP	15	0	1
TAP	15	48	0
TAP	15	96	2
TAP	15	96	7
STR	15	192	2
SCL	15	192	2	96	48	7
TAP	16	0	5
TAP	16	48	4
TAP	16	96	3
TAP	16	96	6
STR	16	192	6
SCL	16	192	6	96	48	3
TAP	17	0	2
TAP	17	96	0
TAP	17	96	1
TAP	17	192	4
TAP	17	192	5
TAP	17	288	6
TAP	17	288	7
TAP	18	0	1
TAP	18	48	0
TAP	18	96	2
TAP	18	96	7
STR	18	192	2
SCL	18	192	2	96	48	7
TAP	19	0	6
TAP	19	48	7
TAP	19	96	0
TAP	19	96	5
STR	19	192	5
SCR	19	192	5	96	48	0
TAP	20	0	2
TAP	20	48	3
TAP	20	96	1
TAP	20	96	4
STR	20	192	1
SCR	20	192	1	96	48	4
TAP	21	0	5
TAP	21	96	6
TAP	21	96	7
TAP	21	192	2
TAP	21	192	3
TAP	21	288	0
TAP	21	288	1
TAP	22	0	6
TAP	22	48	7
TAP	22	96	0
TAP	22	96	5
STR	22	192	5
SCR	22	192	5	96	48	0
TAP	22	288	3
TAP	23	0	1
TAP	23	48	0
TAP	23	96	2
TAP	23	96	7
STR	23	192	2
SCL	23	192	2	96	48	7
TAP	23	288	4
TAP	24	0	5
TAP	24	48	4
TAP	24	96	3
TAP	24	96	6
STR	24	192	6
SCL	24	192	6	96	48	3
TAP	24	288	0
TAP	25	0	2
TAP	25	96	0
TAP	25	96	1
TAP	25	192	4
TAP	25	192	5
TAP	25	288	6
TAP	25	288	7
TAP	26	0	1
TAP	26	48	0
TAP	26	96	2
TAP	26	96	7
STR	26	192	2
SCL	26	192	2	96	48	7
TAP	26	288	4
TAP	27	0	6
TAP	27	48	7
TAP	27	96	0
TAP	27	96	5
STR	27	192	5
SCR	27	192	5	96	48	0
TAP	27	288	3
TAP	28	0	2
TAP	28	48	3
TAP	28	96	1
TAP	28	96	4
STR	28	192	1
SCR	28	192	1	96	48	4
TAP	28	288	7
TAP	29	0	5
TAP	29	96	6
TAP	29	96	7
TAP	29	192	2
TAP	29	192	3
TAP	29	288	0
TAP	29	288	1
STR	30	0	5
SCR	30	0	5	96	192	2
STR	31	0	2
SCL	31	0	2	96	192	5
STR	32	0	7
SSR	32	0	7	96	192	3
TAP	33	0	0
TAP	33	48	7
TAP	33	96	0
TAP	33	192	4
TAP	33	192	6
TAP	33	288	1
TAP	33	288	3
TAP	34	0	2
TAP	34	0	5
TAP	34	96	6
TAP	34	144	7
TAP	34	192	6
TAP	34	288	1
TAP	34	336	0
TAP	35	0	1
TAP	35	96	5
TAP	35	144	7
TAP	35	192	5
TAP	35	288	2
TAP	35	336	0
TAP	36	0	2
TAP	36	96	5
TAP	36	144	4
TAP	36	144	6
TAP	36	240	1
TAP	36	240	3
TAP	36	336	0
STR	37	0	0
SI_	37	0	0	96	48	4
STR	37	96	6
SI_	37	96	6	96	48	2
TAP	37	192	7
BRK	37	288	1
BRK	37	288	6
TAP	38	0	6
TAP	38	0	7
TAP	38	96	4
TAP	38	96	5
TAP	38	192	2
TAP	38	192	3
TAP	38	288	0
TAP	38	288	1
TAP	38	336	2
TAP	38	336	7
TAP	39	48	6
TAP	39	48	7
STR	39	96	0
SI_	39	96	0	96	48	3
STR	39	96	5
SI_	39	96	5	96	48	3
TAP	39	288	5
TAP	39	336	5
TAP	40	0	2
TAP	40	48	2
TAP	40	96	3
HLD	40	144	3	96
TAP	40	240	4
TAP	40	288	4
TAP	40	336	5
TAP	41	0	2
STR	41	96	0
SCR	41	96	0	96	48	3
STR	41	96	6
SCL	41	96	6	96	48	3
TAP	42	0	0
TAP	42	0	1
TAP	42	96	2
TAP	42	96	3
TAP	42	192	4
TAP	42	192	5
TAP	42	288	6
TAP	42	288	7
TAP	42	336	0
TAP	42	336	5
TAP	43	48	0
TAP	43	48	1
STR	43	96	2
SI_	43	96	2	96	48	4
STR	43	96	7
SI_	43	96	7	96	48	4
TAP	43	288	2
TAP	43	336	2
TAP	44	0	5
TAP	44	48	5
TAP	44	96	4
TAP	44	144	4
TAP	44	192	3
TAP	44	240	3
TAP	44	288	2
TAP	44	336	2
TAP	45	0	5
TAP	45	96	3
TAP	45	96	4
TAP	45	192	0
TAP	45	192	1
TAP	45	288	1
TAP	45	288	6
TAP	46	0	3
TAP	46	0	4
TAP	46	48	2
TAP	46	72	3
TAP	46	120	5
TAP	46	144	4
TAP	46	240	1
TAP	46	288	2
TAP	46	288	7
TAP	47	0	3
TAP	47	0	4
TAP	47	48	5
TAP	47	72	4
TAP	47	120	2
TAP	47	144	3
TAP	47	240	6
TAP	47	288	0
TAP	47	288	5
TAP	48	0	3
TAP	48	0	4
TAP	48	48	1
TAP	48	72	3
TAP	48	120	6
TAP	48	144	4
TAP	48	240	0
TAP	48	240	1
TAP	48	288	3
TAP	48	288	6
TAP	49	0	1
TAP	49	0	3
TAP	49	72	2
TAP	49	72	5
STR	49	144	4
SCL	49	144	4	96	96	1
STR	49	144	6
SXL	49	144	6	96	96	0
HLD	50	0	0	288
HLD	50	0	6	288
HLD	51	0	3	288
HLD	51	0	5	288
HLD	52	0	1	288
HLD	52	0	7	288
HLD	53	0	2	288
HLD	53	0	4	288
HLD	54	0	1	288
TAP	54	96	3
TAP	54	192	5
TAP	54	288	7
HLD	55	0	2	288
TAP	55	96	4
TAP	55	192	6
TAP	55	288	0
HLD	56	0	6	288
TAP	56	96	4
TAP	56	192	2
TAP	56	288	0
HLD	57	0	5	288
TAP	57	96	3
TAP	57	192	1
TAP	57	288	7
STR	58	0	0
SXL	58	0	0	96	192	3
STR	58	0	6
SXR	58	0	6	96	192	3
HLD	59	0	7	144
TAP	59	144	0
TAP	59	240	2
TAP	59	240	5
TAP	59	288	2
TAP	59	288	5
TAP	59	336	3
TAP	59	336	4
BRK	60	192	7
TAP	61	0	0
TAP	61	0	1
TAP	61	96	2
TAP	61	96	7
TAP	61	192	3
TAP	61	192	6
TAP	61	288	4
TAP	61	288	5
TAP	61	336	4
TAP	61	336	5
TAP	62	48	2
TAP	62	48	7
STR	62	96	0
SI_	62	96	0	96	48	5
STR	62	96	1
SI_	62	96	1	96	48	4
STR	63	0	6
SUR	63	0	6	96	144	5
STR	63	192	1
SUL	63	192	1	96	144	2
STR	64	0	4
SXL	64	0	4	96	192	4
SXR	64	0	4	96	192	4
TAP	65	0	6
TAP	65	0	7
TAP	65	96	0
TAP	65	96	5
TAP	65	192	1
TAP	65	192	4
TAP	65	288	2
TAP	65	288	3
TAP	65	336	2
TAP	65	336	3
TAP	66	48	0
TAP	66	48	5
STR	66	96	6
SI_	66	96	6	96	48	3
STR	66	96	7
SI_	66	96	7	96	48	2
STR	67	0	1
SUL	67	0	1	96	144	2
STR	67	192	6
SUR	67	192	6	96	144	5
STR	68	0	3
SXL	68	0	3	96	192	3
SXR	68	0	3	96	192	3
TAP	69	0	6
TAP	69	0	7
TAP	69	96	4
TAP	69	96	5
TAP	69	192	2
TAP	69	192	3
TAP	69	288	0
TAP	69	288	1
TAP	69	336	2
TAP	69	336	7
TAP	70	48	6
TAP	70	48	7
STR	70	96	0
SI_	70	96	0	96	48	2
STR	70	96	5
SI_	70	96	5	96	48	2
TAP	70	288	5
TAP	70	336	5
TAP	71	0	2
TAP	71	48	2
TAP	71	96	3
HLD	71	144	3	96
TAP	71	240	4
TAP	71	288	4
TAP	71	336	5
STR	72	0	3
SXR	72	0	3	96	192	0
STR	72	0	5
SXL	72	0	5	96	192	0
TAP	73	0	0
TAP	73	0	1
TAP	73	96	2
TAP	73	96	3
TAP	73	192	4
TAP	73	192	5
TAP	73	288	6
TAP	73	288	7
TAP	73	336	0
TAP	73	336	5
TAP	74	48	0
TAP	74	48	1
STR	74	96	2
SI_	74	96	2	96	48	5
STR	74	96	7
SI_	74	96	7	96	48	5
TAP	74	288	2
TAP	74	336	2
TAP	75	0	5
TAP	75	48	5
TAP	75	96	4
TAP	75	144	4
TAP	75	192	3
TAP	75	240	3
TAP	75	288	2
TAP	75	336	2
TAP	76	0	5
TAP	76	96	3
TAP	76	96	4
TAP	76	192	0
TAP	76	192	1
TAP	76	288	1
TAP	76	288	6
TAP	77	0	1
TAP	77	0	3
TAP	77	72	3
TAP	77	72	4
TAP	77	144	4
TAP	77	144	6
TAP	77	240	1
TAP	77	288	0
TAP	77	336	1
TAP	78	0	4
TAP	78	0	6
TAP	78	72	3
TAP	78	72	4
TAP	78	144	1
TAP	78	144	3
TAP	78	240	6
TAP	78	288	7
TAP	78	336	6
TAP	79	0	0
TAP	79	0	7
TAP	79	72	1
TAP	79	72	6
TAP	79	144	2
TAP	79	144	5
TAP	79	192	3
TAP	79	240	4
TAP	79	288	3
TAP	79	336	4
TAP	80	0	2
TAP	80	48	5
TAP	80	96	1
TAP	80	144	6
TAP	80	192	0
TAP	80	240	7
TAP	80	288	0
TAP	80	288	7
STR	81	0	2
SI_	81	0	2	96	48	7
STR	81	96	5
SI_	81	96	5	96	48	0
TAP	81	192	2
TAP	81	240	2
TAP	81	336	0
TAP	81	336	6
TAP	82	48	4
TAP	82	48	5
TAP	82	96	2
TAP	82	96	3
STR	82	192	1
SV_	82	192	1	96	48	4
STR	82	192	7
SCL	82	192	7	96	48	4
STR	83	0	5
SI_	83	0	5	96	48	0
STR	83	96	2
SI_	83	96	2	96	48	7
TAP	83	192	5
TAP	83	240	5
TAP	83	336	1
TAP	83	336	7
TAP	84	48	2
TAP	84	48	3
TAP	84	96	4
TAP	84	96	5
STR	84	192	0
SCR	84	192	0	96	48	3
STR	84	192	6
SV_	84	192	6	96	48	3
TAP	85	0	3
TAP	85	0	4
TAP	85	48	2
TAP	85	72	3
TAP	85	120	5
TAP	85	144	4
TAP	85	240	0
TAP	85	288	1
TAP	85	288	7
TAP	85	336	2
TAP	86	0	3
TAP	86	0	4
TAP	86	48	5
TAP	86	72	4
TAP	86	120	2
TAP	86	144	3
TAP	86	240	7
TAP	86	288	0
TAP	86	288	6
TAP	86	336	5
TAP	87	0	3
TAP	87	0	4
TAP	87	48	1
TAP	87	72	3
TAP	87	120	6
TAP	87	144	4
TAP	87	240	0
TAP	87	288	1
TAP	87	288	7
TAP	87	336	2
TAP	88	0	1
TAP	88	0	3
TAP	88	72	4
TAP	88	72	6
STR	88	144	0
SCL	88	144	0	96	96	5
STR	88	144	7
SCR	88	144	7	96	96	2
TAP	89	0	3
TAP	89	0	4
TAP	89	48	1
TAP	89	72	0
TAP	89	120	6
TAP	89	144	7
TAP	89	240	0
TAP	89	288	1
TAP	89	288	7
TAP	89	336	2
TAP	90	0	3
TAP	90	0	4
TAP	90	48	6
TAP	90	72	7
TAP	90	120	1
TAP	90	144	0
TAP	90	240	7
TAP	90	288	0
TAP	90	288	6
TAP	90	336	5
TAP	91	0	3
TAP	91	0	4
TAP	91	48	2
TAP	91	72	0
TAP	91	120	5
TAP	91	144	7
TAP	91	240	0
TAP	91	240	7
TAP	91	288	1
TAP	91	288	6
TAP	91	336	0
TAP	91	336	7
TAP	92	0	1
TAP	92	0	3
TAP	92	72	2
TAP	92	72	5
TAP	92	144	4
TAP	92	144	6
TAP	92	216	3
TAP	92	216	4
TAP	92	288	0
TAP	92	288	7
HLD	92	336	1	720
HLD	92	336	6	720

T_REC_TAP	484
T_REC_BRK	3
T_REC_XTP	0
T_REC_HLD	25
T_REC_XHO	0
T_REC_STR	59
T_REC_BST	0
T_REC_XST	0
T_REC_TTP	0
T_REC_THO	0
T_REC_SLD	61
T_REC_ALL	632
T_NUM_TAP	543
T_NUM_BRK	3
T_NUM_HLD	25
T_NUM_SLD	61
T_NUM_ALL	632
T_JUDGE_TAP	546
T_JUDGE_HLD	125
T_JUDGE_SLD	61
T_JUDGE_ALL	732
TTM_EACHPAIRS	168
TTM_SCR_TAP	271500
TTM_SCR_BRK	7800
TTM_SCR_HLD	25000
TTM_SCR_SLD	91500
TTM_SCR_ALL	395800
TTM_SCR_S	383650
TTM_SCR_SS	395500
TTM_RAT_ACV	10007

