VERSION	0.00.00	1.03.00
FES_MODE	0
BPM_DEF	155.000	155.000	155.000	155.000
MET_DEF	4	4
RESOLUTION	384
CLK_DEF	384
COMPATIBLE_CODE	MA2

BPM	0	0	155.000
MET	0	0	4	4

HLD	2	0	2	192
HLD	2	192	3	192
HLD	3	0	4	192
TAP	3	192	5
TAP	4	0	4
TAP	4	96	3
TAP	4	96	4
TAP	4	288	2
TAP	4	288	3
TAP	5	96	4
TAP	5	96	5
TAP	5	288	3
TAP	5	288	4
TAP	6	0	2
TAP	6	96	2
TAP	6	96	3
TAP	6	192	5
TAP	6	288	4
TAP	6	288	5
TAP	7	0	3
TAP	7	96	4
TAP	7	192	2
TAP	7	192	5
HLD	8	0	0	96
HLD	8	0	1	96
HLD	8	192	6	96
HLD	8	192	7	96
HLD	9	0	3	192
HLD	9	0	4	192
BRK	9	288	1
BRK	9	288	6
TAP	10	0	2
TAP	10	96	3
TAP	10	192	2
TAP	10	288	1
TAP	11	0	5
TAP	11	96	4
TAP	11	192	5
TAP	11	288	6
TAP	12	0	0
TAP	12	96	7
TAP	12	192	0
TAP	12	288	1
TAP	12	288	6
TAP	13	0	2
TAP	13	0	5
STR	13	96	3
SI_	13	96	3	96	72	0
STR	13	96	4
SI_	13	96	4	96	72	7
TAP	14	0	1
TAP	14	96	2
TAP	14	192	4
TAP	14	288	3
TAP	15	0	6
TAP	15	96	5
TAP	15	192	3
TAP	15	288	4
TAP	16	0	2
TAP	16	96	3
TAP	16	192	4
STR	16	288	5
SCR	16	288	5	96	192	2
TAP	17	288	0
TAP	17	288	7
TAP	18	0	6
TAP	18	96	5
TAP	18	192	3
TAP	18	288	4
TAP	19	0	1
TAP	19	96	2
TAP	19	192	4
TAP	19	288	3
TAP	20	0	5
TAP	20	96	4
TAP	20	192	3
STR	20	288	2
SCL	20	288	2	96	192	5
TAP	21	288	0
TAP	21	288	7
TAP	22	0	1
TAP	22	96	0
TAP	22	192	7
TAP	22	288	1
TAP	22	288	6
TAP	23	0	5
TAP	23	96	4
TAP	23	192	3
TAP	23	288	2
TAP	23	288	5
TAP	24	0	1
TAP	24	96	0
TAP	24	96	7
TAP	24	192	6
STR	24	288	0
SI_	24	288	0	96	96	3
STR	24	288	7
SI_	24	288	7	96	96	4
TAP	25	192	2
TAP	25	192	5
TAP	25	288	0
TAP	25	288	7
HLD	26	0	1	192
HLD	26	192	0	192
HLD	27	0	7	192
HLD	27	192	6	192
TAP	28	0	5
TAP	28	96	4
TAP	28	192	3
TAP	28	288	2
TAP	29	0	1
TAP	29	96	4
TAP	29	192	3
TAP	29	288	6
HLD	30	0	5	192
TAP	30	192	4
TAP	30	288	3
TAP	30	288	7
HLD	31	0	2	192
TAP	31	192	3
TAP	31	288	0
TAP	31	288	4
HLD	32	0	5	192
TAP	32	192	4
TAP	32	288	3
TAP	32	288	7
HLD	33	0	2	192
BRK	33	192	3
BRK	33	288	1
BRK	34	0	7
TAP	34	96	0
TAP	34	288	4
TAP	34	288	5
TAP	35	96	7
TAP	35	288	2
TAP	35	288	3
TAP	36	0	4
TAP	36	96	3
TAP	36	96	4
TAP	36	144	3
TAP	36	144	4
TAP	36	240	2
TAP	36	240	5
BRK	36	336	0
BRK	36	336	7
TAP	38	0	1
TAP	38	96	0
TAP	38	96	2
TAP	38	192	3
TAP	38	240	4
TAP	38	288	3
TAP	39	0	5
TAP	39	96	4
TAP	39	96	6
TAP	39	192	3
TAP	39	192	7
TAP	40	0	2
TAP	40	96	1
TAP	40	96	3
TAP	40	192	5
TAP	40	288	4
TAP	40	288	6
HLD	41	0	7	96
HLD	41	96	0	96
TAP	41	192	7
TAP	42	0	6
TAP	42	96	5
TAP	42	96	7
TAP	42	192	4
TAP	42	240	3
TAP	42	288	4
TAP	43	0	2
TAP	43	96	1
TAP	43	96	3
TAP	43	192	0
TAP	43	192	4
TAP	44	0	5
TAP	44	48	4
TAP	44	96	5
TAP	44	192	2
TAP	44	240	3
TAP	44	288	2
TAP	45	0	0
TAP	45	0	1
TAP	45	96	2
TAP	45	96	7
TAP	45	192	6
TAP	45	192	7
TAP	45	288	0
TAP	45	288	5
BST	46	0	7
SF_	46	0	7	96	192	3
TAP	47	0	1
TAP	47	96	3
TAP	47	192	2
TAP	47	288	7
TAP	48	0	6
TAP	48	96	4
TAP	48	192	5
TAP	48	288	0
STR	49	0	1
SCR	49	0	1	96	192	6
TAP	50	0	5
STR	50	0	7
SCR	50	0	7	96	192	3
STR	51	0	0
SCL	51	0	0	96	192	4
TAP	51	0	2
TAP	52	0	1
STR	52	0	3
SCR	52	0	3	96	192	7
STR	53	0	4
SCL	53	0	4	96	192	0
TAP	53	0	6
TAP	54	0	6
HLD	54	96	5	192
TAP	54	288	4
TAP	55	0	3
HLD	55	96	2	192
TAP	55	288	3
TAP	56	0	1
HLD	56	96	0	192
TAP	56	288	7
TAP	57	0	0
TAP	57	96	1
TAP	57	192	2
STR	57	288	3
SCL	57	288	3	96	144	0
STR	57	288	7
SCL	57	288	7	96	144	4
TAP	58	288	0
TAP	59	0	7
TAP	59	96	6
TAP	59	192	5
STR	59	288	0
SCR	59	288	0	96	144	3
STR	59	288	4
SCR	59	288	4	96	144	7
TAP	61	0	1
TAP	61	96	2
TAP	61	192	3
TAP	61	288	4
TAP	62	0	2
TAP	62	96	3
STR	62	192	4
SXR	62	192	4	96	288	7
STR	64	0	0
SCL	64	0	0	96	192	3
TAP	65	0	6
TAP	65	96	5
TAP	65	192	4
TAP	65	288	3
TAP	66	0	5
TAP	66	96	4
STR	66	192	3
SXL	66	192	3	96	288	0
STR	68	0	7
SCR	68	0	7	96	192	4
TAP	69	0	5
TAP	69	96	4
TAP	69	96	6
TAP	69	192	7
TAP	69	240	0
TAP	69	288	7
TAP	70	0	1
TAP	70	96	2
TAP	70	96	7
TAP	70	192	0
TAP	70	192	5
TAP	71	0	6
TAP	71	48	4
TAP	71	96	5
TAP	71	192	1
TAP	71	240	3
TAP	71	288	2
TAP	72	0	0
TAP	72	0	1
STR	72	96	6
SCL	72	96	6	96	120	3
STR	72	96	7
SCR	72	96	7	96	120	2
TAP	73	0	2
TAP	73	96	1
TAP	73	96	3
TAP	73	192	0
TAP	73	240	7
TAP	73	288	0
TAP	74	0	6
TAP	74	96	0
TAP	74	96	5
TAP	74	192	2
TAP	74	192	7
TAP	75	0	6
TAP	75	48	7
TAP	75	96	6
TAP	75	192	1
TAP	75	240	0
TAP	75	288	1
TAP	76	0	2
TAP	76	0	3
TAP	76	96	4
TAP	76	96	5
TAP	76	192	6
TAP	76	192	7
STR	76	288	0
SCL	76	288	0	96	120	5
STR	76	288	1
SCR	76	288	1	96	120	4
TAP	77	288	4
TAP	77	288	5
TAP	78	0	6
TAP	78	96	0
TAP	78	96	7
TAP	78	192	1
TAP	78	288	2
TAP	78	288	3
TAP	79	0	1
TAP	79	96	0
TAP	79	96	7
TAP	79	192	6
TAP	79	288	4
TAP	79	288	5
TAP	80	0	2
TAP	80	0	3
STR	80	96	3
SCL	80	96	3	96	72	1
STR	80	96	4
SCR	80	96	4	96	72	6
TAP	81	0	1
TAP	81	0	4
STR	81	96	2
SI_	81	96	2	96	96	0
STR	81	96	3
SI_	81	96	3	96	96	7
TAP	82	0	6
TAP	82	48	6
TAP	82	96	0
TAP	82	192	1
TAP	82	240	1
TAP	82	288	7
TAP	83	0	3
TAP	83	0	6
STR	83	96	4
SI_	83	96	4	96	96	0
STR	83	96	5
SI_	83	96	5	96	96	7
TAP	84	0	1
TAP	84	48	1
TAP	84	96	7
TAP	84	192	6
TAP	84	240	6
TAP	84	288	0
TAP	85	0	4
TAP	85	96	3
TAP	85	96	4
TAP	85	192	4
TAP	85	288	1
TAP	85	288	4
TAP	86	0	3
TAP	86	96	3
TAP	86	96	4
TAP	86	192	3
TAP	86	288	3
TAP	86	288	6
TAP	87	0	5
TAP	87	96	4
TAP	87	96	5
TAP	87	192	5
TAP	87	288	1
TAP	87	288	5
TAP	88	0	2
TAP	88	96	2
TAP	88	96	3
TAP	88	192	2
TAP	88	288	2
TAP	88	288	6
TAP	89	0	7
TAP	89	96	0
TAP	89	96	7
TAP	89	192	7
TAP	89	288	2
TAP	89	288	7
TAP	90	0	0
TAP	90	96	0
TAP	90	96	7
TAP	90	192	0
TAP	90	288	0
TAP	90	288	5
TAP	91	0	1
TAP	91	96	2
TAP	91	96	7
TAP	91	192	6
TAP	91	288	0
TAP	91	288	5
TAP	92	0	3
TAP	92	0	4
TAP	92	96	2
TAP	92	96	5
TAP	92	192	1
TAP	92	192	6
STR	92	288	0
SXL	92	288	0	96	480	3
STR	92	288	7
SXR	92	288	7	96	480	4

T_REC_TAP	311
T_REC_BRK	7
T_REC_XTP	0
T_REC_HLD	22
T_REC_XHO	0
T_REC_STR	31
T_REC_BST	1
T_REC_XST	0
T_REC_TTP	0
T_REC_THO	0
T_REC_SLD	32
T_REC_ALL	404
T_NUM_TAP	342
T_NUM_BRK	8
T_NUM_HLD	22
T_NUM_SLD	32
T_NUM_ALL	404
T_JUDGE_TAP	350
T_JUDGE_HLD	76
T_JUDGE_SLD	32
T_JUDGE_ALL	458
TTM_EACHPAIRS	90
TTM_SCR_TAP	171000
TTM_SCR_BRK	20800
TTM_SCR_HLD	22000
TTM_SCR_SLD	48000
TTM_SCR_ALL	261800
TTM_SCR_S	253200
TTM_SCR_SS	261000
TTM_RAT_ACV	10030

