VERSION	0.00.00	1.03.00
FES_MODE	0
BPM_DEF	155.000	155.000	155.000	155.000
MET_DEF	4	4
RESOLUTION	384
CLK_DEF	384
COMPATIBLE_CODE	MA2

BPM	0	0	155.000
MET	0	0	4	4

TAP	2	0	0
TAP	2	192	0
TAP	3	0	1
TAP	3	192	1
TAP	4	0	2
TAP	4	192	2
TAP	5	0	3
TAP	5	192	3
TAP	6	0	4
TAP	6	192	4
TAP	7	0	5
TAP	7	192	5
TAP	8	0	6
TAP	8	192	6
TAP	9	0	7
TAP	9	192	7
STR	10	0	7
SI_	10	0	7	96	288	4
STR	12	0	3
SI_	12	0	3	96	288	0
TAP	14	0	7
TAP	14	192	7
TAP	15	0	6
TAP	15	192	6
TAP	16	0	5
TAP	16	192	5
HLD	17	0	4	192
TAP	18	0	3
TAP	18	192	3
TAP	19	0	2
TAP	19	192	2
TAP	20	0	1
TAP	20	192	1
HLD	21	0	0	192
TAP	22	0	0
TAP	22	192	0
TAP	22	192	1
TAP	23	0	1
TAP	23	192	0
TAP	23	192	1
TAP	24	0	2
TAP	24	192	2
TAP	24	192	3
TAP	25	0	3
TAP	25	192	2
TAP	25	192	3
TAP	26	0	4
TAP	26	192	4
TAP	26	192	5
TAP	27	0	5
TAP	27	192	4
TAP	27	192	5
TAP	28	0	6
TAP	28	192	6
TAP	28	192	7
HLD	29	0	7	192
STR	30	0	6
SI_	30	0	6	96	288	1
STR	32	0	2
SI_	32	0	2	96	288	5
TAP	34	0	6
TAP	34	192	6
TAP	35	0	5
TAP	35	192	5
TAP	36	0	4
TAP	36	96	4
TAP	36	192	3
TAP	36	288	3
BRK	37	0	3
BRK	37	0	4
TAP	38	0	1
TAP	38	96	1
TAP	38	192	1
TAP	39	0	0
TAP	39	96	0
TAP	39	192	0
TAP	40	0	7
TAP	40	96	7
TAP	40	192	7
TAP	41	0	6
TAP	41	96	6
TAP	41	192	6
TAP	41	192	7
TAP	42	0	6
TAP	42	96	6
TAP	42	192	6
TAP	43	0	7
TAP	43	96	7
TAP	43	192	7
TAP	44	0	0
TAP	44	96	0
TAP	44	192	0
TAP	45	0	1
TAP	45	96	1
TAP	45	192	0
TAP	45	192	1
TAP	46	0	2
TAP	46	96	2
TAP	46	192	2
TAP	47	0	3
TAP	47	96	3
TAP	47	192	3
TAP	48	0	4
TAP	48	96	4
TAP	48	192	4
TAP	49	0	5
TAP	49	96	5
TAP	49	192	5
HLD	50	0	5	384
HLD	52	0	4	384
HLD	54	0	3	384
HLD	56	0	2	384
HLD	58	0	1	384
BRK	60	0	0
TAP	61	0	0
TAP	62	0	0
TAP	63	0	1
TAP	64	0	1
TAP	65	0	2
TAP	66	0	2
TAP	67	0	3
TAP	68	0	3
TAP	69	0	4
TAP	69	96	4
TAP	69	192	4
TAP	70	0	5
TAP	70	96	5
TAP	70	192	4
TAP	70	192	5
TAP	71	0	6
TAP	71	96	6
TAP	71	192	6
TAP	72	0	7
TAP	72	96	7
TAP	72	192	0
TAP	72	192	7
TAP	73	0	0
TAP	73	96	0
TAP	73	192	0
TAP	74	0	1
TAP	74	96	1
TAP	74	192	0
TAP	74	192	1
TAP	75	0	2
TAP	75	96	2
TAP	75	192	2
TAP	76	0	3
TAP	76	96	3
TAP	76	192	3
TAP	76	192	4
STR	77	0	3
SI_	77	0	3	96	288	7
STR	79	0	4
SI_	79	0	4	96	288	0
TAP	81	0	1
TAP	81	96	1
TAP	81	192	0
TAP	81	192	7
TAP	82	0	6
TAP	82	96	6
TAP	82	192	0
TAP	82	192	7
TAP	83	0	0
TAP	83	96	0
TAP	83	192	1
TAP	83	192	7
TAP	84	0	7
TAP	84	96	7
TAP	84	192	0
TAP	84	192	6
STR	85	0	6
SI_	85	0	6	96	288	2
TAP	87	0	1
TAP	87	192	1
TAP	88	0	2
TAP	88	96	3
TAP	88	192	2
TAP	89	0	4
TAP	89	192	4
TAP	90	0	5
TAP	90	192	5
TAP	91	0	6
TAP	91	192	6
TAP	92	0	7
TAP	92	96	0
TAP	92	192	7
STR	93	0	0
SI_	93	0	0	96	288	4

T_REC_TAP	161
T_REC_BRK	3
T_REC_XTP	0
T_REC_HLD	8
T_REC_XHO	0
T_REC_STR	8
T_REC_BST	0
T_REC_XST	0
T_REC_TTP	0
T_REC_THO	0
T_REC_SLD	8
T_REC_ALL	188
T_NUM_TAP	169
T_NUM_BRK	3
T_NUM_HLD	8
T_NUM_SLD	8
T_NUM_ALL	188
T_JUDGE_TAP	172
T_JUDGE_HLD	52
T_JUDGE_SLD	8
T_JUDGE_ALL	232
TTM_EACHPAIRS	18
TTM_SCR_TAP	84500
TTM_SCR_BRK	7800
TTM_SCR_HLD	8000
TTM_SCR_SLD	12000
TTM_SCR_ALL	112300
TTM_SCR_S	108650
TTM_SCR_SS	112000
TTM_RAT_ACV	10026

