VERSION	0.00.00	1.03.00
FES_MODE	0
BPM_DEF	147.000	147.000	147.000	147.000
MET_DEF	4	4
RESOLUTION	384
CLK_DEF	384
COMPATIBLE_CODE	MA2

BPM	0	0	147.000
MET	0	0	4	4
MET	66	0	4	2
MET	66	192	4	4

TAP	2	0	3
TAP	2	96	3
TAP	2	96	4
TAP	2	192	3
TAP	2	240	4
TAP	2	288	3
TAP	2	336	2
TAP	2	336	4
TAP	3	48	4
TAP	3	96	2
TAP	3	144	5
TAP	3	192	3
TAP	3	192	4
TAP	3	288	2
TAP	3	288	5
TAP	4	0	4
TAP	4	96	3
TAP	4	96	4
TAP	4	192	4
TAP	4	240	3
TAP	4	288	4
TAP	4	336	3
TAP	4	336	5
TAP	5	48	3
TAP	5	96	5
TAP	5	144	2
TAP	5	192	3
TAP	5	192	4
TAP	5	288	2
TAP	5	288	5
TAP	6	0	2
TAP	6	48	3
TAP	6	96	2
TAP	6	96	4
TAP	6	144	3
TAP	6	192	2
TAP	6	240	0
TAP	6	240	1
TAP	6	288	7
TAP	6	336	0
TAP	6	336	6
TAP	7	48	7
TAP	7	96	0
TAP	7	144	6
TAP	7	192	1
TAP	7	288	0
TAP	7	288	7
TAP	8	0	5
TAP	8	48	4
TAP	8	96	3
TAP	8	96	5
TAP	8	144	4
TAP	8	192	5
TAP	8	240	6
TAP	8	240	7
TAP	8	288	0
TAP	8	336	1
TAP	8	336	7
TAP	9	48	7
TAP	9	96	0
TAP	9	144	6
TAP	9	192	1
BRK	9	288	0
BRK	9	288	7
STR	10	0	1
SLL	10	0	1	96	96	3
STR	10	96	3
SLL	10	96	3	96	96	5
TAP	10	336	6
TAP	11	0	7
TAP	11	48	6
TAP	11	96	5
TAP	11	96	7
TAP	11	144	6
TAP	11	192	1
TAP	11	240	0
TAP	11	288	1
TAP	11	288	7
TAP	11	336	0
TAP	12	0	0
TAP	12	0	1
TAP	12	48	1
TAP	12	96	1
TAP	12	96	3
TAP	12	144	3
TAP	12	192	3
TAP	12	192	4
TAP	12	240	4
TAP	12	288	4
TAP	12	288	6
STR	12	336	6
SI_	12	336	6	96	48	2
TAP	13	48	0
TAP	13	192	0
TAP	13	240	7
TAP	13	288	1
TAP	13	288	6
STR	14	0	5
SLR	14	0	5	96	96	3
STR	14	96	3
SLR	14	96	3	96	96	1
TAP	14	336	2
TAP	15	0	3
TAP	15	48	2
TAP	15	96	1
TAP	15	96	3
TAP	15	144	2
TAP	15	192	5
TAP	15	240	4
TAP	15	288	3
TAP	15	288	5
TAP	15	336	4
TAP	16	0	4
TAP	16	0	5
TAP	16	48	5
TAP	16	96	5
TAP	16	96	7
TAP	16	144	7
TAP	16	192	0
TAP	16	192	7
TAP	16	240	0
TAP	16	288	0
TAP	16	288	2
STR	16	336	2
SI_	16	336	2	96	48	6
TAP	17	48	5
STR	17	144	7
SI_	17	144	7	96	48	3
TAP	17	240	0
TAP	17	288	1
TAP	17	336	2
TAP	18	0	3
TAP	18	0	5
TAP	18	48	4
TAP	18	96	1
TAP	18	96	3
TAP	18	144	2
TAP	18	192	1
TAP	18	240	0
TAP	18	240	2
TAP	18	288	7
TAP	18	336	0
TAP	18	336	6
TAP	19	48	5
TAP	19	96	4
TAP	19	144	5
STR	19	192	3
SI_	19	192	3	96	48	7
TAP	19	192	6
TAP	19	288	1
TAP	20	0	2
TAP	20	0	4
TAP	20	48	3
TAP	20	96	4
TAP	20	96	6
TAP	20	144	5
TAP	20	192	6
TAP	20	240	5
TAP	20	240	7
TAP	20	288	0
TAP	20	336	1
TAP	20	336	7
TAP	21	48	2
TAP	21	96	3
TAP	21	144	2
TAP	21	192	1
STR	21	192	4
SI_	21	192	4	96	48	0
TAP	21	288	6
STR	22	0	7
SF_	22	0	7	96	48	3
TAP	22	96	7
STR	22	192	0
SF_	22	192	0	96	48	4
TAP	22	288	0
TAP	23	0	6
TAP	23	48	7
TAP	23	96	0
TAP	23	96	6
TAP	23	144	7
TAP	23	192	1
TAP	23	240	0
TAP	23	288	1
TAP	23	288	7
TAP	23	336	0
TAP	24	0	1
TAP	24	48	3
TAP	24	48	4
TAP	24	96	6
TAP	24	144	3
TAP	24	144	4
TAP	24	192	0
TAP	24	192	1
TAP	24	240	2
TAP	24	240	3
TAP	24	288	4
TAP	24	288	5
STR	24	336	6
SI_	24	336	6	96	48	2
STR	24	336	7
SI_	24	336	7	96	48	3
TAP	25	48	6
TAP	25	48	7
TAP	25	192	0
TAP	25	240	6
TAP	25	288	2
TAP	25	288	4
STR	26	0	3
SF_	26	0	3	96	48	7
TAP	26	96	3
STR	26	192	4
SF_	26	192	4	96	48	0
TAP	26	288	4
TAP	27	0	2
TAP	27	48	3
TAP	27	96	2
TAP	27	96	4
TAP	27	144	3
TAP	27	192	5
TAP	27	240	4
TAP	27	288	3
TAP	27	288	5
TAP	27	336	4
TAP	28	0	5
TAP	28	48	0
TAP	28	48	7
TAP	28	96	2
TAP	28	144	0
TAP	28	144	7
TAP	28	192	4
TAP	28	192	5
TAP	28	240	6
TAP	28	240	7
TAP	28	288	0
TAP	28	288	1
STR	28	336	2
SI_	28	336	2	96	48	6
TAP	28	336	3
STR	29	48	5
SI_	29	48	5	96	48	1
STR	29	144	0
SI_	29	144	0	96	48	4
TAP	29	240	7
TAP	29	288	6
HLD	29	336	5	144
STR	30	96	4
SI_	30	96	4	96	48	0
TAP	30	192	4
STR	30	192	7
SI_	30	192	7	96	48	3
TAP	30	288	7
TAP	30	336	1
TAP	31	0	0
TAP	31	0	2
TAP	31	72	1
TAP	31	72	5
TAP	31	144	3
TAP	31	144	7
TAP	31	240	7
TAP	31	288	6
TAP	31	336	5
TAP	32	0	1
TAP	32	0	4
TAP	32	48	2
TAP	32	96	3
TAP	32	96	6
TAP	32	144	5
TAP	32	192	0
TAP	32	192	4
TAP	32	240	1
TAP	32	288	2
TAP	32	288	7
TAP	32	336	6
TAP	33	0	0
STR	33	0	5
SI_	33	0	5	96	48	0
STR	33	96	2
SI_	33	96	2	96	48	7
STR	33	192	4
SXL	33	192	4	96	48	6
STR	33	288	3
SXR	33	288	3	96	48	1
STR	34	96	7
SCL	34	96	7	96	48	4
STR	34	192	0
SCR	34	192	0	96	48	3
TAP	34	192	7
TAP	34	288	0
TAP	34	336	6
TAP	35	0	5
TAP	35	0	7
TAP	35	72	2
TAP	35	72	6
TAP	35	144	0
TAP	35	144	4
TAP	35	240	0
TAP	35	288	1
TAP	35	336	2
TAP	36	0	3
TAP	36	0	5
TAP	36	48	2
TAP	36	48	6
TAP	36	96	7
TAP	36	144	0
TAP	36	144	2
TAP	36	192	3
TAP	36	192	7
TAP	36	240	4
TAP	36	288	5
TAP	36	288	7
TAP	37	0	3
HLD	37	0	4	192
TAP	37	48	5
TAP	37	96	2
TAP	37	144	6
STR	37	192	0
SI_	37	192	0	96	48	4
BRK	37	288	0
BRK	37	288	7
TAP	38	0	3
TAP	38	0	7
TAP	38	48	6
TAP	38	96	1
TAP	38	96	5
TAP	38	144	2
TAP	38	192	4
TAP	38	192	5
TAP	38	240	3
TAP	38	240	6
TAP	38	288	2
TAP	38	288	7
STR	38	336	0
SXL	38	336	0	96	144	5
TAP	38	336	1
HLD	39	48	2	144
TAP	39	240	4
TAP	39	288	3
HLD	39	336	1	96
TAP	39	336	4
TAP	40	48	3
TAP	40	96	4
TAP	40	144	2
HLD	40	144	5	96
TAP	40	240	6
TAP	40	288	7
HLD	40	336	0	96
TAP	40	336	6
TAP	41	48	2
TAP	41	96	3
STR	41	144	1
SLR	41	144	1	96	72	0
STR	41	144	5
SLR	41	144	5	96	72	4
TAP	41	240	1
TAP	41	240	5
TAP	42	0	0
TAP	42	0	4
TAP	42	48	1
TAP	42	96	2
TAP	42	96	6
TAP	42	144	5
TAP	42	192	2
TAP	42	192	3
TAP	42	240	1
TAP	42	240	4
TAP	42	288	0
TAP	42	288	5
TAP	42	336	6
STR	42	336	7
SXR	42	336	7	96	144	2
HLD	43	48	5	144
TAP	43	240	3
TAP	43	288	4
TAP	43	336	3
HLD	43	336	6	96
TAP	44	48	4
TAP	44	96	3
HLD	44	144	2	96
TAP	44	144	5
TAP	44	240	1
TAP	44	288	0
TAP	44	336	1
HLD	44	336	7	96
TAP	45	48	5
TAP	45	96	4
HLD	45	144	2	96
TAP	45	144	6
TAP	45	240	1
TAP	45	288	0
TAP	45	336	7
TAP	46	0	3
HLD	46	0	4	336
TAP	46	96	5
TAP	46	192	3
TAP	46	240	2
TAP	46	288	3
TAP	46	336	2
TAP	47	48	3
TAP	47	96	5
TAP	47	144	4
TAP	47	192	2
TAP	47	288	0
TAP	47	288	7
HLD	48	0	3	336
TAP	48	0	4
TAP	48	96	2
TAP	48	192	4
TAP	48	240	5
TAP	48	288	4
TAP	48	336	5
TAP	49	48	4
TAP	49	96	2
TAP	49	144	3
TAP	49	192	5
TAP	49	288	0
TAP	49	288	7
STR	50	0	3
SXL	50	0	3	96	192	0
TAP	50	24	4
TAP	50	48	3
TAP	50	72	4
TAP	50	96	3
TAP	50	336	6
TAP	50	360	7
TAP	51	0	6
TAP	51	48	1
TAP	51	72	0
TAP	51	96	1
TAP	51	144	5
TAP	51	168	4
TAP	51	192	5
TAP	51	240	2
TAP	51	264	3
TAP	51	288	1
TAP	51	312	4
TAP	51	336	2
TAP	52	0	6
TAP	52	24	7
TAP	52	48	6
TAP	52	72	7
TAP	52	96	5
TAP	52	120	0
TAP	52	144	5
TAP	52	168	0
TAP	52	192	4
TAP	52	216	1
TAP	52	240	4
TAP	52	264	1
TAP	52	288	3
TAP	52	312	2
TAP	52	336	3
HLD	52	360	2	120
TAP	53	96	5
TAP	53	120	4
TAP	53	144	5
TAP	53	168	4
TAP	53	192	6
TAP	53	216	3
TAP	53	240	6
TAP	53	264	3
TAP	53	288	7
TAP	53	312	2
TAP	53	336	7
TAP	53	360	2
TAP	54	0	7
TAP	54	24	6
TAP	54	48	5
TAP	54	72	0
TAP	54	96	1
TAP	54	120	2
TAP	54	144	7
TAP	54	168	6
TAP	54	192	5
TAP	54	216	0
TAP	54	240	1
TAP	54	264	2
TAP	54	288	7
TAP	54	312	0
TAP	54	336	7
TAP	55	0	6
TAP	55	0	7
TAP	55	48	0
TAP	55	48	5
TAP	55	96	3
TAP	55	120	4
TAP	55	144	3
TAP	55	192	0
TAP	55	192	1
TAP	55	240	2
TAP	55	240	7
TAP	55	288	4
TAP	55	312	3
TAP	55	336	4
TAP	56	0	1
TAP	56	24	0
TAP	56	48	2
TAP	56	72	7
TAP	56	96	3
TAP	56	120	6
TAP	56	144	4
TAP	56	168	5
TAP	56	192	3
TAP	56	216	6
TAP	56	240	2
TAP	56	264	7
TAP	56	288	1
TAP	57	0	0
TAP	57	24	1
TAP	57	48	2
TAP	57	72	3
TAP	57	96	7
TAP	57	120	6
TAP	57	144	5
TAP	57	168	4
TAP	57	192	0
TAP	57	216	1
TAP	57	240	2
TAP	57	264	3
TAP	57	288	7
TAP	57	300	6
TAP	57	312	5
TAP	57	324	4
TAP	57	336	3
TAP	57	348	2
TAP	57	360	1
TAP	57	372	0
TAP	58	0	3
BRK	58	0	7
STR	58	96	0
SI_	58	96	0	96	48	4
TAP	58	96	2
TAP	58	192	0
STR	58	192	3
SI_	58	192	3	96	48	7
TAP	58	288	3
TAP	58	336	5
TAP	59	0	4
TAP	59	0	6
TAP	59	72	1
TAP	59	72	5
TAP	59	144	3
TAP	59	144	7
TAP	59	240	3
TAP	59	288	2
TAP	59	336	1
TAP	60	0	0
TAP	60	0	4
TAP	60	48	5
TAP	60	96	2
TAP	60	96	7
TAP	60	144	1
TAP	60	192	0
TAP	60	192	5
TAP	60	240	6
TAP	60	288	3
TAP	60	288	7
TAP	60	336	2
STR	61	0	1
SI_	61	0	1	96	48	4
TAP	61	0	4
TAP	61	48	1
STR	61	96	6
SI_	61	96	6	96	48	3
TAP	61	144	6
STR	61	192	0
SXL	61	192	0	96	48	2
TAP	61	240	0
STR	61	288	7
SXR	61	288	7	96	48	5
TAP	61	336	7
STR	62	96	3
SCL	62	96	3	96	48	0
TAP	62	192	3
STR	62	192	4
SCR	62	192	4	96	48	7
TAP	62	288	4
TAP	62	336	2
TAP	63	0	1
TAP	63	0	3
TAP	63	72	2
TAP	63	72	6
TAP	63	144	0
TAP	63	144	4
TAP	63	240	4
TAP	63	288	5
TAP	63	336	6
TAP	64	0	3
TAP	64	0	7
TAP	64	48	2
TAP	64	48	6
TAP	64	96	1
TAP	64	96	5
TAP	64	144	0
TAP	64	144	4
TAP	64	192	3
TAP	64	192	7
TAP	64	240	2
TAP	64	240	6
TAP	64	288	1
TAP	64	288	5
HLD	65	0	3	192
TAP	65	0	4
TAP	65	48	2
TAP	65	96	5
TAP	65	144	1
STR	65	192	7
SI_	65	192	7	96	48	3
BRK	65	288	0
BRK	65	288	7
TAP	66	0	1
TAP	66	24	6
TAP	66	48	1
TAP	66	72	6
TAP	66	96	0
TAP	66	120	7
TAP	66	144	0
TAP	66	168	7
TAP	66	192	0
TAP	66	192	6
TAP	66	240	0
TAP	66	288	1
TAP	66	288	7
TAP	66	336	7
TAP	67	0	2
TAP	67	0	6
TAP	67	48	1
TAP	67	48	5
TAP	67	96	0
TAP	67	96	4
STR	67	144	3
SXL	67	144	3	96	144	6
STR	67	144	7
SXL	67	144	7	96	144	2
TAP	67	240	3
TAP	67	240	7
TAP	68	48	3
TAP	68	96	2
TAP	68	96	4
HLD	68	144	1	96
TAP	68	144	5
TAP	68	240	4
TAP	68	288	3
TAP	68	288	5
TAP	68	336	2
HLD	68	336	6	96
TAP	69	48	1
TAP	69	96	0
TAP	69	96	2
HLD	69	144	3	96
TAP	69	144	7
TAP	69	240	6
TAP	69	288	5
TAP	69	288	7
STR	69	336	0
SLR	69	336	0	96	72	5
STR	69	336	4
SLR	69	336	4	96	72	1
TAP	70	48	0
TAP	70	48	4
TAP	70	192	1
TAP	70	192	7
TAP	70	240	7
TAP	70	288	0
TAP	70	288	6
TAP	70	336	0
TAP	71	0	1
TAP	71	0	5
TAP	71	48	2
TAP	71	48	6
TAP	71	96	3
TAP	71	96	7
STR	71	144	0
SXR	71	144	0	96	144	5
STR	71	144	4
SXR	71	144	4	96	144	1
TAP	71	240	0
TAP	71	240	4
TAP	72	48	4
TAP	72	96	3
TAP	72	96	5
TAP	72	144	2
HLD	72	144	6	96
TAP	72	240	3
TAP	72	288	2
TAP	72	288	4
HLD	72	336	1	96
TAP	72	336	5
TAP	73	48	6
TAP	73	96	5
TAP	73	96	7
TAP	73	144	0
HLD	73	144	4	96
TAP	73	240	1
TAP	73	288	0
TAP	73	288	2
TAP	73	336	3
STR	73	336	7
SCL	73	336	7	96	48	4
TAP	74	48	2
TAP	74	96	1
TAP	74	144	0
BRK	74	192	1
BRK	74	192	7
BRK	74	240	0
BRK	74	240	2
BRK	74	288	1
BRK	74	288	3
BRK	74	336	2
BRK	74	336	4
BRK	75	0	3
BRK	75	0	5
BRK	75	48	4
BRK	75	48	6
BRK	75	96	5
BRK	75	96	7
BST	75	144	0
SLR	75	144	0	96	72	7
BST	75	144	6
SLL	75	144	6	96	72	7
BRK	75	240	0
BRK	75	240	6
STR	76	48	1
SI_	76	48	1	96	48	5
TAP	76	96	0
TAP	76	96	2
TAP	76	144	1
STR	76	240	7
SI_	76	240	7	96	48	3
TAP	76	288	0
TAP	76	288	6
TAP	76	336	7
STR	77	48	2
SI_	77	48	2	96	48	6
TAP	77	96	1
TAP	77	96	3
TAP	77	144	2
STR	77	240	4
SI_	77	240	4	96	48	7
TAP	77	288	3
TAP	77	288	5
STR	77	336	4
SI_	77	336	4	96	48	1
TAP	78	48	4
TAP	78	192	0
TAP	78	192	6
TAP	78	240	5
TAP	78	240	7
TAP	78	288	4
TAP	78	288	6
TAP	78	336	3
TAP	78	336	5
TAP	79	0	2
TAP	79	0	4
TAP	79	48	1
TAP	79	48	3
TAP	79	96	0
TAP	79	96	2
STR	79	144	1
SLR	79	144	1	96	72	0
STR	79	144	7
SLL	79	144	7	96	72	0
TAP	79	240	1
TAP	79	240	7
STR	80	48	6
SI_	80	48	6	96	48	2
STR	80	48	7
SI_	80	48	7	96	48	3
TAP	80	96	0
TAP	80	96	5
TAP	80	144	6
TAP	80	144	7
STR	80	240	0
SI_	80	240	0	96	48	4
STR	80	240	1
SI_	80	240	1	96	48	5
TAP	80	288	2
TAP	80	288	7
TAP	80	336	0
TAP	80	336	1
STR	81	48	2
SI_	81	48	2	96	48	6
STR	81	48	3
SI_	81	48	3	96	48	7
TAP	81	96	1
TAP	81	96	4
TAP	81	144	2
TAP	81	144	3
STR	81	240	4
SI_	81	240	4	96	48	0
STR	81	240	5
SI_	81	240	5	96	48	1
TAP	81	288	3
TAP	81	288	6
TAP	81	336	4
TAP	81	336	5
STR	82	48	2
SXR	82	48	2	96	336	4
STR	82	48	5
SXL	82	48	5	96	336	3
TAP	82	96	3
TAP	82	96	4
TAP	82	144	2
TAP	82	144	5
TAP	83	192	0
TAP	83	216	7
TAP	83	240	0
TAP	83	264	7
TAP	83	288	1
TAP	83	312	6
TAP	83	336	1
TAP	83	360	6
TAP	84	0	2
TAP	84	24	5
TAP	84	48	2
TAP	84	72	5
TAP	84	96	3
TAP	84	112	4
TAP	84	128	3
TAP	84	144	4
TAP	84	160	3
TAP	84	176	4
TAP	84	192	3
TAP	84	240	5
TAP	84	288	2
TAP	84	312	4
TAP	84	336	3
TAP	85	0	5
TAP	85	24	6
STR	85	48	7
SCL	85	48	7	96	48	4
TAP	85	96	0
TAP	85	120	1
TAP	85	144	2
TAP	85	168	3

T_REC_TAP	654
T_REC_BRK	23
T_REC_XTP	0
T_REC_HLD	21
T_REC_XHO	0
T_REC_STR	66
T_REC_BST	2
T_REC_XST	0
T_REC_TTP	0
T_REC_THO	0
T_REC_SLD	68
T_REC_ALL	834
T_NUM_TAP	720
T_NUM_BRK	25
T_NUM_HLD	21
T_NUM_SLD	68
T_NUM_ALL	834
T_JUDGE_TAP	745
T_JUDGE_HLD	60
T_JUDGE_SLD	68
T_JUDGE_ALL	873
TTM_EACHPAIRS	198
TTM_SCR_TAP	360000
TTM_SCR_BRK	65000
TTM_SCR_HLD	21000
TTM_SCR_SLD	102000
TTM_SCR_ALL	548000
TTM_SCR_S	529150
TTM_SCR_SS	545500
TTM_RAT_ACV	10045

