VERSION	0.00.00	1.03.00
FES_MODE	0
BPM_DEF	147.000	147.000	147.000	147.000
MET_DEF	4	4
RESOLUTION	384
CLK_DEF	384
COMPATIBLE_CODE	MA2

BPM	0	0	147.000
MET	0	0	4	4

TAP	2	0	2
TAP	2	96	3
TAP	2	192	5
TAP	2	288	4
TAP	3	0	1
TAP	3	96	3
TAP	3	192	6
TAP	3	288	4
TAP	4	0	0
TAP	4	96	2
TAP	4	192	7
TAP	4	288	5
TAP	5	0	1
TAP	5	0	3
TAP	5	96	4
TAP	5	96	6
TAP	5	192	3
TAP	5	192	4
TAP	5	288	1
TAP	5	288	6
TAP	6	0	2
TAP	6	96	2
TAP	6	96	3
TAP	6	192	5
TAP	6	288	4
TAP	6	288	5
TAP	7	0	2
TAP	7	96	1
TAP	7	96	3
TAP	7	192	5
TAP	7	288	4
TAP	7	288	6
TAP	8	0	2
TAP	8	0	3
TAP	8	96	1
TAP	8	96	4
TAP	8	192	4
TAP	8	192	5
TAP	8	288	3
TAP	8	288	6
TAP	9	0	0
TAP	9	0	5
TAP	9	96	2
TAP	9	96	7
TAP	9	192	3
TAP	9	192	4
TAP	9	288	1
TAP	9	288	6
TAP	10	0	0
TAP	10	0	7
BST	10	96	0
SI_	10	96	0	96	48	3
BST	10	96	7
SI_	10	96	7	96	48	4
TAP	11	0	2
TAP	11	96	4
TAP	11	96	6
TAP	11	192	5
TAP	11	288	1
TAP	11	288	3
TAP	12	0	5
TAP	12	0	7
TAP	12	96	0
TAP	12	96	2
TAP	12	192	3
TAP	12	192	4
TAP	12	288	0
TAP	12	288	7
TAP	12	336	0
TAP	12	336	7
TAP	13	48	2
TAP	13	48	7
TAP	13	144	0
TAP	13	144	5
TAP	13	240	3
TAP	13	240	4
TAP	13	288	3
TAP	13	288	4
TAP	14	0	0
TAP	14	0	7
BST	14	96	0
SI_	14	96	0	96	48	4
BST	14	96	7
SI_	14	96	7	96	48	3
TAP	15	0	5
TAP	15	96	1
TAP	15	96	3
TAP	15	192	2
TAP	15	288	4
TAP	15	288	6
TAP	16	0	0
TAP	16	0	2
TAP	16	96	5
TAP	16	96	7
TAP	16	192	3
TAP	16	192	4
TAP	16	288	1
TAP	16	288	6
TAP	16	336	1
TAP	16	336	6
TAP	17	48	0
TAP	17	48	6
TAP	17	144	1
TAP	17	144	7
TAP	17	240	0
TAP	17	288	7
STR	17	336	1
SCR	17	336	1	96	240	7
STR	17	336	6
SCL	17	336	6	96	240	0
TAP	19	0	1
TAP	19	96	0
TAP	19	96	2
TAP	19	192	6
TAP	19	288	5
TAP	19	288	7
TAP	20	0	2
TAP	20	0	3
TAP	20	96	1
TAP	20	96	4
TAP	20	192	4
TAP	20	192	5
TAP	20	288	3
TAP	20	288	6
TAP	21	0	0
TAP	21	0	7
TAP	21	96	1
TAP	21	96	6
TAP	21	192	2
TAP	21	192	5
TAP	21	288	3
TAP	21	288	4
STR	22	0	2
SI_	22	0	2	96	48	7
TAP	22	0	3
TAP	22	192	4
STR	22	192	5
SI_	22	192	5	96	48	0
TAP	23	0	1
TAP	23	96	3
TAP	23	96	5
TAP	23	192	6
TAP	23	288	2
TAP	23	288	4
TAP	24	0	0
TAP	24	96	4
TAP	24	96	6
TAP	24	192	5
TAP	24	288	2
HLD	24	336	2	96
TAP	25	48	0
TAP	25	144	5
TAP	25	144	7
TAP	25	240	3
TAP	25	240	4
TAP	25	288	3
TAP	25	288	4
TAP	26	0	4
STR	26	0	5
SI_	26	0	5	96	48	0
STR	26	192	2
SI_	26	192	2	96	48	7
TAP	26	192	3
TAP	27	0	6
TAP	27	96	2
TAP	27	96	4
TAP	27	192	1
TAP	27	288	3
TAP	27	288	5
TAP	28	0	7
TAP	28	96	1
TAP	28	96	3
TAP	28	192	2
TAP	28	288	5
HLD	28	336	5	96
TAP	29	48	7
TAP	29	144	0
TAP	29	144	2
TAP	29	240	4
TAP	29	288	3
TAP	29	336	4
TAP	30	0	2
TAP	30	0	5
STR	30	96	0
SI_	30	96	0	96	48	5
STR	30	96	1
SI_	30	96	1	96	48	4
HLD	31	0	6	72
HLD	31	72	4	72
TAP	31	144	5
TAP	31	240	2
TAP	31	288	2
HLD	32	0	6	96
HLD	32	96	5	96
HLD	32	192	4	96
TAP	32	288	3
HLD	33	0	0	96
HLD	33	96	1	96
STR	33	192	2
SCL	33	192	2	96	96	7
SUL	33	192	2	96	96	5
STR	34	96	6
SI_	34	96	6	96	48	3
STR	34	96	7
SI_	34	96	7	96	48	2
HLD	35	0	1	72
HLD	35	72	3	72
TAP	35	144	2
TAP	35	240	5
TAP	35	288	5
HLD	36	0	1	96
HLD	36	96	0	96
HLD	36	192	7	96
TAP	36	288	6
TAP	37	0	0
TAP	37	0	2
TAP	37	96	5
TAP	37	96	7
TAP	37	192	3
TAP	37	192	4
BRK	37	288	1
BRK	37	288	6
TAP	38	0	2
TAP	38	48	2
TAP	38	96	3
TAP	38	144	3
TAP	38	192	2
TAP	38	240	4
TAP	38	288	3
STR	38	336	5
SCR	38	336	5	96	96	1
TAP	39	240	2
TAP	39	288	2
TAP	39	336	1
TAP	39	336	3
TAP	40	48	5
TAP	40	96	5
TAP	40	144	4
TAP	40	144	6
TAP	40	240	1
TAP	40	288	1
TAP	40	336	0
TAP	40	336	2
TAP	41	48	6
TAP	41	96	6
TAP	41	144	5
TAP	41	144	7
TAP	41	240	2
TAP	41	240	5
TAP	41	288	2
TAP	41	288	5
TAP	42	0	4
TAP	42	0	6
TAP	42	96	1
TAP	42	96	3
TAP	42	192	5
TAP	42	240	3
TAP	42	288	4
STR	42	336	2
SCL	42	336	2	96	96	6
TAP	43	240	5
TAP	43	288	5
TAP	43	336	4
TAP	43	336	6
TAP	44	48	2
TAP	44	96	2
TAP	44	144	1
TAP	44	144	3
TAP	44	240	6
TAP	44	288	6
TAP	44	336	5
TAP	44	336	7
TAP	45	48	1
TAP	45	96	1
TAP	45	144	0
TAP	45	144	2
TAP	45	240	0
TAP	45	240	7
TAP	45	288	0
TAP	45	288	7
TAP	46	0	2
TAP	46	0	3
TAP	46	96	3
TAP	46	96	6
TAP	46	192	5
TAP	46	240	4
TAP	46	336	2
TAP	46	336	5
TAP	47	48	2
TAP	47	96	3
TAP	47	192	0
TAP	47	192	2
TAP	47	288	5
TAP	47	288	7
TAP	48	0	4
TAP	48	0	5
TAP	48	96	1
TAP	48	96	4
TAP	48	192	2
TAP	48	240	3
TAP	48	336	2
TAP	48	336	5
TAP	49	48	5
TAP	49	96	4
TAP	49	192	5
TAP	49	192	7
TAP	49	288	0
TAP	49	288	2
STR	50	0	0
SXL	50	0	0	96	192	3
STR	50	0	7
SXR	50	0	7	96	192	4
STR	51	0	1
SI_	51	0	1	96	48	4
STR	51	96	6
SI_	51	96	6	96	48	3
STR	51	192	0
SI_	51	192	0	96	48	5
TAP	51	288	7
STR	52	0	6
SI_	52	0	6	96	48	3
STR	52	96	1
SI_	52	96	1	96	48	4
STR	52	192	7
SI_	52	192	7	96	48	2
TAP	52	288	0
TAP	53	0	3
TAP	53	0	4
TAP	53	96	1
TAP	53	96	6
TAP	53	192	0
TAP	53	240	7
TAP	53	288	0
TAP	54	0	6
TAP	54	48	6
TAP	54	96	3
TAP	54	144	3
TAP	54	192	4
TAP	54	240	4
TAP	54	288	1
TAP	54	336	1
TAP	55	0	7
TAP	55	48	7
TAP	55	96	0
TAP	55	96	6
TAP	55	192	0
TAP	55	240	0
TAP	55	288	1
TAP	55	288	7
TAP	56	0	1
TAP	56	48	1
TAP	56	96	4
TAP	56	144	4
TAP	56	192	3
TAP	56	240	3
TAP	56	288	6
TAP	56	336	6
TAP	57	0	2
TAP	57	48	2
TAP	57	96	1
TAP	57	96	3
TAP	57	192	5
TAP	57	240	5
TAP	57	288	4
TAP	57	288	6
TAP	58	0	3
TAP	58	0	4
STR	58	96	6
SI_	58	96	6	96	48	2
STR	58	96	7
SI_	58	96	7	96	48	3
HLD	59	0	1	72
HLD	59	72	2	72
TAP	59	144	3
TAP	59	240	5
TAP	59	288	5
HLD	60	0	1	96
HLD	60	96	3	96
HLD	60	192	5	96
TAP	60	288	7
HLD	61	0	6	96
HLD	61	96	4	96
HLD	61	192	2	96
TAP	61	288	0
TAP	62	0	3
TAP	62	0	4
STR	62	96	0
SI_	62	96	0	96	48	4
STR	62	96	1
SI_	62	96	1	96	48	5
HLD	63	0	6	72
HLD	63	72	5	72
TAP	63	144	4
TAP	63	240	2
TAP	63	288	2
HLD	64	0	4	96
HLD	64	96	2	96
HLD	64	192	0	96
TAP	64	288	6
TAP	65	0	5
TAP	65	0	7
TAP	65	96	0
TAP	65	96	2
TAP	65	192	3
TAP	65	192	4
BRK	65	288	1
BRK	65	288	6
TAP	66	0	0
TAP	66	0	7
TAP	66	48	0
TAP	66	48	7
TAP	66	96	0
TAP	66	96	7
TAP	66	192	5
TAP	66	240	5
TAP	66	288	4
TAP	66	336	4
TAP	67	0	6
TAP	67	48	4
TAP	67	96	5
STR	67	144	3
SI_	67	144	3	96	48	0
SI_	67	144	3	96	48	6
TAP	68	48	7
TAP	68	96	7
TAP	68	144	0
TAP	68	144	6
TAP	68	240	0
TAP	68	288	0
TAP	68	336	1
TAP	68	336	7
TAP	69	48	6
TAP	69	96	6
TAP	69	144	5
TAP	69	144	7
TAP	69	240	1
TAP	69	288	1
TAP	69	336	0
TAP	69	336	2
TAP	70	48	3
TAP	70	48	4
TAP	70	96	2
TAP	70	96	5
HLD	70	192	1	96
STR	70	192	7
SI_	70	192	7	96	48	3
TAP	71	0	1
TAP	71	48	3
TAP	71	96	2
STR	71	144	4
SI_	71	144	4	96	48	1
SI_	71	144	4	96	48	7
TAP	72	48	0
TAP	72	96	0
TAP	72	144	1
TAP	72	144	7
TAP	72	240	7
TAP	72	288	7
TAP	72	336	0
TAP	72	336	6
TAP	73	48	2
TAP	73	96	2
TAP	73	144	1
TAP	73	144	3
TAP	73	240	5
TAP	73	288	5
TAP	73	336	4
TAP	73	336	6
TAP	74	48	3
TAP	74	48	4
TAP	74	96	2
TAP	74	96	5
TAP	74	192	2
TAP	74	240	3
TAP	74	288	1
TAP	74	336	4
TAP	75	0	2
TAP	75	48	2
TAP	75	96	4
STR	75	144	4
SF_	75	144	4	96	48	0
TAP	76	48	0
TAP	76	48	1
TAP	76	96	0
TAP	76	96	1
TAP	76	144	2
TAP	76	144	7
TAP	76	240	6
TAP	76	240	7
TAP	76	288	6
TAP	76	288	7
TAP	76	336	0
TAP	76	336	5
TAP	77	48	2
TAP	77	48	3
TAP	77	96	2
TAP	77	96	3
TAP	77	144	1
TAP	77	144	4
TAP	77	240	0
TAP	77	240	7
TAP	77	288	0
TAP	77	288	7
TAP	77	336	2
TAP	77	336	5
TAP	78	48	0
TAP	78	48	7
TAP	78	96	1
TAP	78	96	6
STR	78	192	0
SI_	78	192	0	96	48	4
HLD	78	192	5	96
TAP	79	0	5
TAP	79	48	5
TAP	79	96	3
STR	79	144	3
SF_	79	144	3	96	48	7
TAP	80	48	6
TAP	80	48	7
TAP	80	96	6
TAP	80	96	7
TAP	80	144	0
TAP	80	144	5
TAP	80	240	0
TAP	80	240	1
TAP	80	288	0
TAP	80	288	1
TAP	80	336	2
TAP	80	336	7
TAP	81	48	4
TAP	81	48	5
TAP	81	96	4
TAP	81	96	5
TAP	81	144	3
TAP	81	144	6
TAP	81	240	0
TAP	81	240	7
TAP	81	288	0
TAP	81	288	7
TAP	81	336	2
TAP	81	336	5
TAP	82	48	3
TAP	82	48	4
TAP	82	96	2
TAP	82	96	5
STR	82	144	1
SCR	82	144	1	96	96	6
TAP	82	144	6
TAP	83	0	7
TAP	83	48	7
TAP	83	144	2
TAP	83	144	5
TAP	83	240	0
TAP	83	288	0
TAP	84	0	6
TAP	84	48	7
TAP	84	96	6
TAP	84	192	1
TAP	84	240	0
TAP	84	288	1
TAP	85	0	2
TAP	85	0	5
TAP	85	48	2
TAP	85	48	5
TAP	85	96	3
TAP	85	120	4
TAP	85	144	3
BRK	85	168	4

T_REC_TAP	459
T_REC_BRK	5
T_REC_XTP	0
T_REC_HLD	29
T_REC_XHO	0
T_REC_STR	32
T_REC_BST	4
T_REC_XST	0
T_REC_TTP	0
T_REC_THO	0
T_REC_SLD	39
T_REC_ALL	568
T_NUM_TAP	491
T_NUM_BRK	9
T_NUM_HLD	29
T_NUM_SLD	39
T_NUM_ALL	568
T_JUDGE_TAP	500
T_JUDGE_HLD	58
T_JUDGE_SLD	39
T_JUDGE_ALL	597
TTM_EACHPAIRS	160
TTM_SCR_TAP	245500
TTM_SCR_BRK	23400
TTM_SCR_HLD	29000
TTM_SCR_SLD	58500
TTM_SCR_ALL	356400
TTM_SCR_S	344850
TTM_SCR_SS	355500
TTM_RAT_ACV	10025

