VERSION	0.00.00	1.03.00
FES_MODE	0
BPM_DEF	147.000	147.000	147.000	147.000
MET_DEF	4	4
RESOLUTION	384
CLK_DEF	384
COMPATIBLE_CODE	MA2

BPM	0	0	147.000
MET	0	0	4	4

TAP	2	0	4
TAP	2	96	4
TAP	2	192	3
TAP	2	288	3
TAP	3	0	4
TAP	3	96	4
TAP	3	192	3
TAP	3	288	3
TAP	4	0	5
TAP	4	96	4
TAP	4	192	2
TAP	4	288	3
TAP	5	0	5
TAP	5	96	4
TAP	5	192	2
TAP	5	288	3
TAP	6	0	4
TAP	6	96	4
TAP	6	192	5
TAP	6	288	4
TAP	7	0	3
TAP	7	96	3
TAP	7	192	2
TAP	7	288	3
TAP	8	0	4
TAP	8	96	4
TAP	8	192	5
TAP	8	288	6
TAP	9	0	3
TAP	9	96	3
TAP	9	192	2
TAP	9	288	1
STR	10	0	0
SI_	10	0	0	96	144	5
TAP	11	0	3
TAP	11	96	3
TAP	11	192	2
TAP	11	288	2
TAP	11	288	3
TAP	12	0	4
TAP	12	96	4
TAP	12	192	5
TAP	12	288	4
TAP	12	288	5
TAP	13	0	3
TAP	13	96	2
TAP	13	192	1
TAP	13	288	0
STR	14	0	7
SI_	14	0	7	96	144	2
TAP	15	0	4
TAP	15	96	4
TAP	15	192	5
TAP	15	288	4
TAP	15	288	5
TAP	16	0	3
TAP	16	96	3
TAP	16	192	2
TAP	16	288	2
TAP	16	288	3
TAP	17	0	4
TAP	17	96	5
TAP	17	192	6
STR	17	288	7
SCR	17	288	7	96	288	4
TAP	19	0	2
TAP	19	96	3
TAP	19	192	2
TAP	19	288	1
TAP	19	288	4
TAP	20	0	2
TAP	20	96	5
TAP	20	192	3
TAP	20	288	4
TAP	21	0	5
TAP	21	96	4
TAP	21	192	5
TAP	21	288	3
TAP	21	288	6
STR	22	0	7
SI_	22	0	7	96	72	5
STR	22	192	0
SI_	22	192	0	96	72	2
TAP	23	0	4
TAP	23	96	3
TAP	23	192	5
TAP	23	288	4
TAP	23	288	6
TAP	24	0	3
TAP	24	96	2
TAP	24	192	4
TAP	24	288	5
TAP	25	0	3
TAP	25	96	4
TAP	25	192	2
TAP	25	288	1
TAP	25	288	3
STR	26	0	0
SI_	26	0	0	96	72	2
STR	26	192	7
SI_	26	192	7	96	72	5
TAP	27	0	3
TAP	27	96	4
TAP	27	192	2
TAP	27	288	1
TAP	27	288	3
TAP	28	0	4
TAP	28	96	5
TAP	28	192	3
TAP	28	288	2
TAP	29	0	4
TAP	29	96	3
TAP	29	192	5
TAP	29	288	4
TAP	29	288	6
TAP	30	0	7
TAP	30	96	6
TAP	30	96	7
TAP	30	192	0
TAP	30	288	0
TAP	30	288	1
TAP	31	0	7
TAP	31	96	0
TAP	31	192	1
TAP	31	192	6
TAP	32	0	1
TAP	32	96	2
TAP	32	192	3
TAP	32	288	4
TAP	32	288	5
TAP	33	0	6
TAP	33	96	5
TAP	33	192	4
TAP	33	288	2
TAP	33	288	3
TAP	34	0	1
TAP	34	96	0
TAP	34	96	1
TAP	34	192	6
TAP	34	288	6
TAP	34	288	7
TAP	35	0	0
TAP	35	96	7
TAP	35	192	1
TAP	35	192	6
HLD	36	0	2	192
HLD	36	192	3	192
HLD	37	0	4	192
TAP	37	192	5
BRK	37	288	0
BRK	37	288	7
TAP	38	0	1
TAP	38	96	0
TAP	38	96	1
TAP	38	192	7
TAP	38	240	7
TAP	38	288	0
TAP	39	0	6
TAP	39	96	6
TAP	39	96	7
TAP	39	192	0
TAP	39	240	0
TAP	39	288	7
TAP	40	0	2
TAP	40	96	1
TAP	40	96	3
TAP	40	192	5
TAP	40	288	4
TAP	40	288	6
TAP	41	0	3
STR	41	96	2
SCR	41	96	2	96	96	5
TAP	42	0	6
TAP	42	96	6
TAP	42	96	7
TAP	42	192	0
TAP	42	240	0
TAP	42	288	7
TAP	43	0	1
TAP	43	96	0
TAP	43	96	1
TAP	43	192	7
TAP	43	240	7
TAP	43	288	0
TAP	44	0	5
TAP	44	96	4
TAP	44	96	6
TAP	44	192	2
TAP	44	288	1
TAP	44	288	3
TAP	45	0	5
TAP	45	96	4
TAP	45	96	6
TAP	45	192	3
STR	45	288	2
SCL	45	288	2	96	288	5
TAP	47	0	4
TAP	47	96	3
TAP	47	96	4
TAP	47	288	2
TAP	47	288	3
TAP	48	96	3
TAP	48	96	4
TAP	48	288	4
TAP	48	288	5
TAP	49	0	3
TAP	49	96	2
TAP	49	192	1
TAP	49	288	0
STR	50	0	7
SCL	50	0	7	96	192	3
TAP	51	0	2
TAP	51	96	3
TAP	51	192	4
TAP	51	288	5
TAP	52	0	6
TAP	52	96	5
TAP	52	192	4
TAP	52	288	2
TAP	52	288	3
TAP	53	0	1
TAP	53	96	2
TAP	53	192	3
TAP	53	288	4
TAP	53	288	5
TAP	54	0	6
TAP	54	96	6
TAP	54	96	7
TAP	54	192	1
TAP	54	288	0
TAP	54	288	1
STR	55	0	7
SCL	55	0	7	96	72	5
STR	55	192	0
SCR	55	192	0	96	72	2
TAP	56	0	5
TAP	56	96	4
TAP	56	192	5
TAP	56	288	3
TAP	56	288	6
TAP	57	0	2
TAP	57	96	3
TAP	57	192	2
TAP	57	288	1
TAP	57	288	4
TAP	58	0	0
TAP	58	96	0
TAP	58	96	1
TAP	58	192	7
TAP	58	288	6
TAP	58	288	7
TAP	59	0	0
TAP	59	96	7
TAP	59	192	1
TAP	59	192	6
TAP	60	0	6
TAP	60	96	5
TAP	60	192	4
TAP	60	288	2
TAP	60	288	3
TAP	61	0	1
TAP	61	96	2
TAP	61	192	3
TAP	61	288	4
TAP	61	288	5
TAP	62	0	6
TAP	62	96	6
TAP	62	96	7
TAP	62	192	1
TAP	62	288	0
TAP	62	288	1
TAP	63	0	7
TAP	63	96	0
TAP	63	192	1
TAP	63	192	6
HLD	64	0	5	192
HLD	64	192	4	192
HLD	65	0	3	192
TAP	65	192	2
BST	65	288	0
SCR	65	288	0	96	96	3
BST	65	288	7
SCL	65	288	7	96	96	4
TAP	66	192	6
TAP	66	288	6
TAP	66	288	7
TAP	67	0	0
TAP	67	48	0
TAP	67	96	7
TAP	67	192	1
TAP	67	288	0
TAP	67	288	1
TAP	68	0	7
TAP	68	48	7
TAP	68	96	0
TAP	68	192	5
TAP	68	288	4
TAP	68	288	6
TAP	69	0	2
TAP	69	96	1
TAP	69	96	3
TAP	69	192	4
STR	69	288	5
SCL	69	288	5	96	96	2
TAP	70	192	1
TAP	70	288	0
TAP	70	288	1
TAP	71	0	7
TAP	71	48	7
TAP	71	96	0
TAP	71	192	6
TAP	71	288	6
TAP	71	288	7
TAP	72	0	0
TAP	72	48	0
TAP	72	96	7
TAP	72	192	2
TAP	72	288	1
TAP	72	288	4
TAP	73	0	5
TAP	73	96	3
TAP	73	96	6
TAP	73	192	1
TAP	73	288	2
TAP	73	288	7
TAP	74	0	6
TAP	74	96	0
TAP	74	96	5
TAP	74	192	1
TAP	74	288	0
TAP	74	288	1
TAP	75	0	7
TAP	75	48	7
BRK	75	96	0
TAP	75	192	6
TAP	75	288	6
TAP	75	288	7
TAP	76	0	0
TAP	76	48	0
BRK	76	96	7
TAP	76	192	2
TAP	76	288	1
TAP	76	288	3
TAP	77	0	5
TAP	77	96	4
TAP	77	96	6
TAP	77	192	3
STR	77	288	2
SUL	77	288	2	96	120	5
TAP	78	192	7
TAP	78	288	6
TAP	78	288	7
TAP	79	0	0
TAP	79	48	0
TAP	79	96	7
TAP	79	192	0
TAP	79	288	0
TAP	79	288	1
TAP	80	0	7
TAP	80	48	7
TAP	80	96	0
TAP	80	192	4
TAP	80	192	5
TAP	80	288	3
TAP	80	288	6
TAP	81	0	2
TAP	81	0	3
TAP	81	96	1
TAP	81	96	4
TAP	81	192	3
TAP	81	192	4
TAP	81	288	1
TAP	81	288	6
TAP	82	0	0
TAP	82	0	7
TAP	82	96	2
STR	82	96	5
SCR	82	96	5	96	288	2
TAP	83	192	3
TAP	83	288	4
TAP	84	0	2
TAP	84	0	5
TAP	84	96	1
TAP	84	96	6
HLD	84	192	3	96
HLD	84	192	4	96
STR	85	0	3
SXR	85	0	3	96	96	2
STR	85	0	4
SXL	85	0	4	96	96	5

T_REC_TAP	340
T_REC_BRK	4
T_REC_XTP	0
T_REC_HLD	8
T_REC_XHO	0
T_REC_STR	17
T_REC_BST	2
T_REC_XST	0
T_REC_TTP	0
T_REC_THO	0
T_REC_SLD	19
T_REC_ALL	390
T_NUM_TAP	357
T_NUM_BRK	6
T_NUM_HLD	8
T_NUM_SLD	19
T_NUM_ALL	390
T_JUDGE_TAP	363
T_JUDGE_HLD	28
T_JUDGE_SLD	19
T_JUDGE_ALL	410
TTM_EACHPAIRS	75
TTM_SCR_TAP	178500
TTM_SCR_BRK	15600
TTM_SCR_HLD	8000
TTM_SCR_SLD	28500
TTM_SCR_ALL	230600
TTM_SCR_S	223100
TTM_SCR_SS	230000
TTM_RAT_ACV	10026

