VERSION	0.00.00	1.03.00
FES_MODE	0
BPM_DEF	147.000	147.000	147.000	147.000
MET_DEF	4	4
RESOLUTION	384
CLK_DEF	384
COMPATIBLE_CODE	MA2

BPM	0	0	147.000
MET	0	0	4	4
MET	66	0	4	2
MET	66	192	4	4

TAP	2	0	0
TAP	2	192	0
TAP	3	0	0
TAP	4	0	7
TAP	4	192	7
TAP	5	0	7
TAP	6	0	1
TAP	6	192	1
TAP	7	0	0
TAP	7	0	1
TAP	8	0	6
TAP	8	192	6
TAP	9	0	6
TAP	9	0	7
TAP	10	0	0
TAP	10	192	0
TAP	11	0	1
TAP	11	192	1
TAP	12	0	2
TAP	12	96	2
TAP	12	192	2
HLD	13	0	3	192
TAP	14	0	4
TAP	14	192	4
TAP	15	0	5
TAP	15	192	5
TAP	16	0	6
TAP	16	96	6
TAP	16	192	7
TAP	16	288	7
HLD	17	0	0	192
STR	18	0	7
SI_	18	0	7	96	288	3
STR	20	0	0
SI_	20	0	0	96	288	4
TAP	22	0	7
TAP	22	192	7
TAP	23	0	6
TAP	23	192	6
TAP	24	0	5
TAP	24	96	5
TAP	24	192	5
HLD	25	0	4	192
TAP	26	0	3
TAP	26	192	3
TAP	27	0	2
TAP	27	192	2
TAP	28	0	1
TAP	28	96	1
TAP	28	192	0
TAP	28	288	0
HLD	29	0	7	192
STR	30	0	0
SI_	30	0	0	96	288	3
TAP	32	0	4
TAP	32	192	5
TAP	33	0	6
TAP	33	96	6
TAP	33	192	6
STR	34	0	7
SI_	34	0	7	96	288	4
TAP	36	0	3
TAP	36	192	2
TAP	37	0	1
TAP	37	96	1
BRK	37	192	1
TAP	38	0	0
TAP	38	96	0
TAP	38	192	0
TAP	39	0	7
TAP	39	96	7
TAP	39	192	7
TAP	40	0	1
TAP	40	96	1
TAP	40	192	1
TAP	41	0	6
TAP	41	96	6
TAP	41	192	6
TAP	42	0	5
TAP	42	96	5
TAP	42	192	5
TAP	43	0	4
TAP	43	96	4
TAP	43	192	4
TAP	44	0	3
TAP	44	96	3
TAP	44	192	3
TAP	45	0	2
TAP	45	96	2
TAP	45	192	2
STR	46	0	1
SI_	46	0	1	96	288	4
STR	48	0	6
SI_	48	0	6	96	288	3
HLD	50	0	0	192
TAP	51	0	0
TAP	51	96	0
TAP	51	192	0
TAP	52	0	1
TAP	52	96	1
TAP	52	192	2
TAP	52	288	2
HLD	53	0	3	192
TAP	54	0	4
TAP	54	192	4
TAP	55	0	5
TAP	55	96	5
TAP	55	192	5
TAP	56	0	6
TAP	56	192	6
TAP	57	0	7
TAP	57	96	7
TAP	57	192	0
TAP	57	192	7
STR	58	0	0
SI_	58	0	0	96	288	3
TAP	60	0	4
TAP	60	192	5
TAP	61	0	6
TAP	61	96	6
TAP	61	192	6
STR	62	0	7
SI_	62	0	7	96	288	4
TAP	64	0	3
TAP	64	192	2
TAP	65	0	1
TAP	65	96	1
BRK	65	192	1
TAP	66	192	0
TAP	66	288	0
TAP	67	0	0
HLD	67	192	1	192
TAP	68	192	2
TAP	68	288	2
TAP	69	0	3
TAP	69	96	3
TAP	69	192	4
TAP	69	288	4
TAP	70	0	3
TAP	70	0	4
TAP	70	192	4
TAP	70	288	4
TAP	71	0	4
HLD	71	192	5	192
TAP	72	192	6
TAP	72	288	6
TAP	73	0	7
TAP	73	96	7
TAP	73	192	0
TAP	73	288	0
BRK	74	0	0
BRK	74	0	7
TAP	74	192	7
TAP	74	288	7
TAP	75	0	6
TAP	75	96	6
HLD	75	192	5	192
TAP	76	192	5
TAP	76	288	5
TAP	77	0	4
TAP	77	96	4
TAP	77	192	3
TAP	77	288	3
TAP	78	0	3
TAP	78	0	4
TAP	78	192	3
TAP	78	288	3
TAP	79	0	2
TAP	79	96	2
HLD	79	192	1	192
TAP	80	192	1
TAP	80	288	1
TAP	81	0	0
TAP	81	96	0
TAP	81	192	7
TAP	81	288	7
BRK	82	0	0
BRK	82	0	7
STR	82	192	0
SI_	82	192	0	96	288	4
HLD	84	192	3	336
HLD	85	0	4	144

T_REC_TAP	146
T_REC_BRK	6
T_REC_XTP	0
T_REC_HLD	12
T_REC_XHO	0
T_REC_STR	9
T_REC_BST	0
T_REC_XST	0
T_REC_TTP	0
T_REC_THO	0
T_REC_SLD	9
T_REC_ALL	182
T_NUM_TAP	155
T_NUM_BRK	6
T_NUM_HLD	12
T_NUM_SLD	9
T_NUM_ALL	182
T_JUDGE_TAP	161
T_JUDGE_HLD	50
T_JUDGE_SLD	9
T_JUDGE_ALL	220
TTM_EACHPAIRS	7
TTM_SCR_TAP	77500
TTM_SCR_BRK	15600
TTM_SCR_HLD	12000
TTM_SCR_SLD	13500
TTM_SCR_ALL	118600
TTM_SCR_S	114500
TTM_SCR_SS	118000
TTM_RAT_ACV	10050

