VERSION	0.00.00	1.03.00
FES_MODE	0
BPM_DEF	212.000	212.000	212.000	212.000
MET_DEF	4	4
RESOLUTION	384
CLK_DEF	384
COMPATIBLE_CODE	MA2

BPM	0	0	212.000
MET	0	0	4	4

TAP	2	0	1
TAP	2	96	2
TAP	2	96	3
TAP	2	192	5
TAP	2	240	4
TAP	2	288	5
TAP	3	0	6
TAP	3	48	5
TAP	3	96	4
STR	3	144	3
SI_	3	144	3	96	48	7
TAP	3	240	6
TAP	3	288	6
TAP	4	0	6
TAP	4	96	4
TAP	4	96	5
TAP	4	192	2
TAP	4	240	3
TAP	4	288	2
TAP	5	0	1
TAP	5	48	2
TAP	5	96	3
STR	5	144	4
SI_	5	144	4	96	48	0
TAP	6	0	2
TAP	6	48	3
TAP	6	96	1
TAP	6	192	5
TAP	6	240	4
TAP	6	288	6
TAP	7	0	1
TAP	7	48	0
TAP	7	96	2
TAP	7	192	1
TAP	7	192	3
TAP	7	288	1
TAP	7	336	0
TAP	8	0	2
TAP	8	48	7
TAP	8	96	3
TAP	8	144	6
TAP	8	192	3
TAP	8	240	5
TAP	8	288	2
TAP	8	336	4
TAP	9	0	2
TAP	9	48	3
HLD	9	96	1	144
TAP	9	144	3
TAP	9	240	0
TAP	10	0	5
TAP	10	48	4
TAP	10	96	6
TAP	10	192	2
TAP	10	240	3
TAP	10	288	1
TAP	11	0	6
TAP	11	48	7
TAP	11	96	5
TAP	11	192	4
TAP	11	192	6
TAP	11	336	5
TAP	11	336	7
TAP	12	48	6
TAP	12	96	1
TAP	12	144	7
TAP	12	192	2
TAP	12	240	0
STR	12	336	2
SI_	12	336	2	96	48	6
TAP	12	336	3
BRK	13	192	7
BRK	13	240	7
HLD	13	336	0	384
TAP	13	336	6
TAP	14	96	5
TAP	14	192	4
TAP	14	288	3
TAP	14	336	3
TAP	15	48	1
TAP	15	96	1
TAP	15	192	0
TAP	15	192	2
TAP	15	336	1
HLD	15	336	7	432
TAP	16	48	2
TAP	16	96	2
TAP	16	192	3
TAP	16	288	4
TAP	17	0	5
TAP	17	96	6
TAP	17	192	5
TAP	17	192	7
TAP	17	240	5
TAP	17	240	7
HLD	17	336	0	384
TAP	17	336	6
TAP	18	96	5
TAP	18	192	4
TAP	18	288	3
TAP	18	336	3
TAP	19	48	1
TAP	19	96	1
TAP	19	192	0
TAP	19	192	2
TAP	19	336	1
HLD	19	336	7	336
TAP	20	48	2
TAP	20	96	2
TAP	20	192	3
TAP	20	288	4
TAP	21	0	6
STR	21	48	7
SI_	21	48	7	96	48	2
TAP	21	96	6
TAP	21	144	7
STR	21	336	0
SCL	21	336	0	96	48	5
STR	21	336	1
SCR	21	336	1	96	48	4
STR	22	192	6
SI_	22	192	6	96	48	2
STR	22	192	7
SI_	22	192	7	96	48	3
STR	23	0	0
SI_	23	0	0	96	48	5
STR	23	0	1
SCR	23	0	1	96	48	4
STR	23	192	6
SCL	23	192	6	96	48	3
STR	23	192	7
SI_	23	192	7	96	48	2
STR	24	0	0
SCL	24	0	0	96	48	5
STR	24	0	1
SCR	24	0	1	96	48	4
TAP	24	192	2
TAP	24	192	7
TAP	24	288	0
TAP	24	288	1
TAP	25	0	3
TAP	25	0	6
TAP	25	96	6
TAP	25	96	7
TAP	25	192	1
TAP	25	192	4
TAP	25	288	0
TAP	25	288	7
STR	26	0	2
SXR	26	0	2	96	288	7
STR	26	0	6
SXR	26	0	6	96	288	3
TAP	27	192	2
TAP	27	192	6
TAP	27	240	2
TAP	27	240	6
HLD	27	336	0	144
HLD	28	96	6	144
TAP	28	192	4
TAP	28	240	4
HLD	28	336	1	144
TAP	29	48	3
TAP	29	96	3
TAP	29	192	0
TAP	29	240	5
TAP	29	288	2
HLD	29	336	7	144
HLD	30	96	6	96
HLD	30	192	5	96
HLD	30	288	4	96
HLD	31	0	3	96
HLD	31	96	2	96
TAP	31	192	1
HLD	31	336	3	96
TAP	32	48	6
TAP	32	96	6
TAP	32	144	7
TAP	32	192	0
TAP	32	192	5
HLD	32	336	4	96
TAP	33	48	1
TAP	33	96	1
TAP	33	144	0
TAP	33	192	2
TAP	33	192	7
HLD	33	336	0	144
HLD	34	96	1	96
HLD	34	192	2	96
HLD	34	288	3	96
HLD	35	0	4	96
HLD	35	96	5	96
TAP	35	192	6
HLD	35	336	4	96
TAP	36	48	1
TAP	36	96	1
TAP	36	144	0
TAP	36	192	2
TAP	36	192	7
TAP	36	336	1
TAP	36	336	3
TAP	37	48	4
TAP	37	48	6
TAP	37	144	0
TAP	37	144	2
TAP	37	240	5
TAP	37	240	7
HLD	37	336	6	96
TAP	38	48	7
TAP	38	96	5
TAP	38	144	2
TAP	38	192	3
TAP	38	240	1
TAP	38	240	4
HLD	38	336	1	96
TAP	39	48	0
TAP	39	96	2
TAP	39	144	5
TAP	39	192	4
TAP	39	240	3
TAP	39	240	6
HLD	39	336	6	96
TAP	40	48	7
TAP	40	96	5
TAP	40	144	2
TAP	40	192	3
TAP	40	240	1
TAP	40	240	4
HLD	40	336	1	96
TAP	41	48	0
TAP	41	96	2
TAP	41	144	5
TAP	41	192	7
TAP	41	240	6
TAP	41	288	0
BST	41	336	1
SCR	41	336	1	96	336	7
BRK	41	336	7
TAP	43	240	0
TAP	43	240	7
TAP	43	288	0
TAP	43	288	7
STR	43	336	1
SV_	43	336	1	96	192	6
STR	43	336	6
SCL	43	336	6	96	192	1
TAP	44	336	2
TAP	44	336	5
TAP	45	48	0
TAP	45	96	7
TAP	45	144	1
TAP	45	192	6
TAP	45	240	2
TAP	45	288	4
TAP	45	336	3
TAP	45	336	4
TAP	46	48	1
TAP	46	48	6
BRK	46	96	0
BRK	46	96	7
TAP	46	192	1
TAP	46	240	0
TAP	46	288	7
STR	46	336	6
SI_	46	336	6	96	48	3
TAP	47	48	7
STR	47	96	7
SI_	47	96	7	96	48	2
TAP	47	192	0
STR	47	336	1
SI_	47	336	1	96	48	4
TAP	48	48	0
STR	48	96	0
SI_	48	96	0	96	48	5
TAP	48	192	7
STR	48	336	4
SI_	48	336	4	96	48	0
TAP	49	96	7
TAP	49	192	0
TAP	49	192	6
TAP	49	240	1
TAP	49	240	5
TAP	49	288	2
TAP	49	288	4
STR	49	336	3
SI_	49	336	3	96	48	7
TAP	50	96	0
TAP	50	192	1
TAP	50	192	7
TAP	50	240	2
TAP	50	240	6
TAP	50	288	3
TAP	50	288	5
STR	51	0	1
SI_	51	0	1	96	48	4
STR	51	0	6
SI_	51	0	6	96	48	3
TAP	51	96	1
TAP	51	96	6
TAP	51	192	0
TAP	51	192	7
TAP	51	288	2
TAP	51	288	5
TAP	51	336	3
TAP	51	336	4
TAP	52	48	1
TAP	52	48	6
STR	52	144	3
SI_	52	144	3	96	48	0
STR	52	144	4
SI_	52	144	4	96	48	7
STR	52	336	6
SI_	52	336	6	96	48	3
STR	53	48	4
SI_	53	48	4	96	48	0
TAP	53	96	4
STR	53	144	7
SI_	53	144	7	96	48	3
TAP	53	192	7
STR	53	240	1
SI_	53	240	1	96	48	5
TAP	53	288	1
STR	53	336	3
SI_	53	336	3	96	48	7
TAP	54	48	0
TAP	54	192	6
TAP	54	240	7
TAP	54	288	0
STR	54	336	1
SI_	54	336	1	96	48	4
TAP	55	48	0
STR	55	96	0
SI_	55	96	0	96	48	5
TAP	55	192	7
STR	55	336	6
SI_	55	336	6	96	48	3
TAP	56	48	7
STR	56	96	7
SI_	56	96	7	96	48	2
TAP	56	192	0
STR	56	336	3
SI_	56	336	3	96	48	7
TAP	57	96	0
TAP	57	192	1
TAP	57	192	7
TAP	57	240	2
TAP	57	240	6
TAP	57	288	3
TAP	57	288	5
STR	57	336	4
SI_	57	336	4	96	48	0
TAP	58	96	7
TAP	58	192	0
TAP	58	192	6
TAP	58	240	1
TAP	58	240	5
TAP	58	288	2
TAP	58	288	4
STR	59	0	1
SI_	59	0	1	96	48	4
STR	59	0	6
SI_	59	0	6	96	48	3
TAP	59	96	1
TAP	59	96	6
TAP	59	192	0
TAP	59	192	7
TAP	59	240	1
TAP	59	240	6
TAP	59	288	2
TAP	59	288	5
TAP	59	336	3
TAP	59	336	4
TAP	60	48	1
TAP	60	48	6
STR	60	144	3
SI_	60	144	3	96	48	0
STR	60	144	4
SI_	60	144	4	96	48	7
STR	60	336	1
SI_	60	336	1	96	48	4
STR	61	48	3
SI_	61	48	3	96	48	7
TAP	61	96	3
STR	61	144	0
SI_	61	144	0	96	48	5
TAP	61	192	0
STR	61	240	4
SCR	61	240	4	96	240	3
TAP	61	288	4
TAP	61	336	3
STR	63	0	6
SI_	63	0	6	96	48	2
TAP	63	0	7
TAP	63	96	7
STR	63	192	0
SI_	63	192	0	96	48	4
TAP	63	192	7
TAP	63	288	7
STR	64	0	1
SI_	64	0	1	96	48	5
STR	64	96	4
SI_	64	96	4	96	48	0
TAP	64	192	7
TAP	65	0	0
STR	65	0	1
SI_	65	0	1	96	48	5
TAP	65	96	0
TAP	65	192	0
STR	65	192	7
SI_	65	192	7	96	48	3
TAP	65	288	0
STR	66	0	6
SI_	66	0	6	96	48	2
STR	66	96	3
SI_	66	96	3	96	48	7
TAP	66	192	0
STR	67	0	6
SI_	67	0	6	96	48	2
TAP	67	0	7
TAP	67	96	7
STR	67	192	0
SI_	67	192	0	96	48	4
TAP	67	192	7
TAP	67	288	7
STR	68	0	1
SI_	68	0	1	96	48	5
STR	68	96	4
SI_	68	96	4	96	48	0
TAP	68	192	7
TAP	69	0	0
TAP	69	0	2
TAP	69	48	0
TAP	69	48	2
TAP	69	192	5
TAP	69	192	7
TAP	69	240	5
TAP	69	240	7
TAP	70	0	3
TAP	70	48	4
TAP	70	96	3
BRK	70	144	1
BRK	70	144	6
TAP	70	240	0
TAP	70	240	7
TAP	70	288	0
TAP	70	288	7
TAP	71	0	1
HLD	71	0	4	576
TAP	71	96	0
TAP	71	192	7
TAP	71	288	6
TAP	71	336	6
TAP	72	48	5
TAP	72	96	5
TAP	72	192	3
HLD	72	336	0	624
TAP	72	336	5
TAP	73	48	4
TAP	73	96	4
TAP	73	192	3
TAP	73	288	2
TAP	73	336	2
TAP	74	48	1
TAP	74	96	1
TAP	74	192	7
TAP	74	288	1
TAP	74	288	6
TAP	75	0	2
HLD	75	0	7	576
TAP	75	96	3
TAP	75	192	4
TAP	75	288	5
TAP	75	336	5
TAP	76	48	6
TAP	76	96	6
TAP	76	192	0
HLD	76	336	3	624
TAP	76	336	6
TAP	77	48	7
TAP	77	96	7
TAP	77	192	0
TAP	77	288	1
TAP	77	336	1
TAP	78	48	2
TAP	78	96	2
TAP	78	192	4
BRK	78	288	2
BRK	78	288	5
STR	79	0	7
SI_	79	0	7	96	48	4
SI_	79	0	7	96	48	5
STR	79	192	0
SI_	79	192	0	96	48	2
SI_	79	192	0	96	48	3
STR	80	0	6
SCL	80	0	6	96	48	3
STR	80	0	7
SCR	80	0	7	96	48	2
TAP	80	192	1
TAP	80	192	4
TAP	80	288	6
TAP	80	288	7
STR	81	0	0
SI_	81	0	0	96	48	2
SI_	81	0	0	96	48	4
STR	81	192	7
SI_	81	192	7	96	48	3
SI_	81	192	7	96	48	5
STR	82	0	0
SCL	82	0	0	96	48	5
STR	82	0	1
SCR	82	0	1	96	48	4
TAP	82	192	3
STR	82	240	3
SCL	82	240	3	96	336	3
SCR	82	240	3	96	336	3
TAP	82	336	3
STR	84	0	6
SI_	84	0	6	96	48	3
SI_	84	0	6	96	48	4
STR	84	192	1
SI_	84	192	1	96	48	3
SI_	84	192	1	96	48	4
STR	85	0	6
SCL	85	0	6	96	48	3
STR	85	0	7
SCR	85	0	7	96	48	2
TAP	85	192	1
TAP	85	192	4
TAP	85	288	6
TAP	85	288	7
STR	86	0	1
SI_	86	0	1	96	48	3
SI_	86	0	1	96	48	5
STR	86	192	6
SI_	86	192	6	96	48	1
SI_	86	192	6	96	48	4
STR	87	0	2
SXL	87	0	2	96	384	3
SLL	87	0	2	96	384	3
TAP	88	192	1
TAP	88	192	7
TAP	88	288	1
TAP	88	336	1
STR	89	0	2
SXR	89	0	2	96	240	4
TAP	89	96	7
TAP	89	192	6
TAP	89	240	6
TAP	89	288	5
STR	89	336	5
SXL	89	336	5	96	240	3
TAP	91	0	4
TAP	91	0	5
TAP	91	96	2
TAP	91	96	7
TAP	91	192	2
TAP	91	240	3
TAP	91	288	2
TAP	92	0	5
TAP	92	48	4
TAP	92	96	5
TAP	92	144	3
TAP	92	144	6
TAP	92	192	1
TAP	92	240	0
TAP	92	288	7
STR	92	336	6
SCL	92	336	6	96	144	2
STR	93	96	2
SCL	93	96	2	96	96	6
HLD	93	192	0	144
BST	94	0	0
SI_	94	0	0	96	48	5
TAP	94	96	0
BST	94	96	7
SI_	94	96	7	96	48	2
BRK	94	192	0
TAP	94	192	7
STR	94	336	0
SI_	94	336	0	96	48	5
STR	95	96	4
SCL	95	96	4	96	96	1
TAP	95	192	5
TAP	95	240	6
TAP	95	288	7
STR	95	336	7
SI_	95	336	7	96	48	2
STR	96	96	3
SCR	96	96	3	96	96	6
TAP	96	192	2
TAP	96	240	1
TAP	96	288	0
STR	97	0	0
SI_	97	0	0	96	48	5
STR	97	0	1
SI_	97	0	1	96	48	4
TAP	97	96	0
TAP	97	96	1
STR	97	192	7
SCL	97	192	7	96	48	5
TAP	97	288	0
STR	97	336	0
SCR	97	336	0	96	48	2
TAP	98	48	6
BST	98	144	3
SI_	98	144	3	96	48	0
BST	98	144	4
SI_	98	144	4	96	48	7
BRK	98	240	3
BRK	98	240	4
STR	98	336	5
SI_	98	336	5	96	48	0
STR	99	48	7
SI_	99	48	7	96	48	3
TAP	99	96	7
STR	99	144	4
SI_	99	144	4	96	48	0
TAP	99	192	4
STR	99	240	2
SI_	99	240	2	96	48	6
TAP	99	288	2
STR	99	336	0
SI_	99	336	0	96	48	4
TAP	100	48	3
TAP	100	192	6
TAP	100	240	7
TAP	100	288	0
STR	100	336	1
SCR	100	336	1	96	144	5
STR	101	96	5
SCR	101	96	5	96	96	1
HLD	101	192	7	144
STR	102	0	7
SI_	102	0	7	96	48	2
STR	102	96	0
SI_	102	96	0	96	48	5
TAP	102	96	7
TAP	102	192	0
TAP	102	192	7
STR	102	336	7
SI_	102	336	7	96	48	2
STR	103	96	3
SCR	103	96	3	96	96	6
TAP	103	192	2
TAP	103	240	1
TAP	103	288	0
STR	103	336	0
SI_	103	336	0	96	48	5
STR	104	96	4
SCL	104	96	4	96	96	1
TAP	104	192	5
TAP	104	240	6
TAP	104	288	7
STR	105	0	6
SI_	105	0	6	96	48	3
STR	105	0	7
SI_	105	0	7	96	48	2
TAP	105	96	6
TAP	105	96	7
STR	105	192	0
SCR	105	192	0	96	48	2
TAP	105	240	0
TAP	105	288	7
STR	105	336	7
SCL	105	336	7	96	48	5
TAP	106	48	0
STR	106	144	3
SI_	106	144	3	96	48	0
STR	106	144	4
SI_	106	144	4	96	48	7
TAP	106	240	3
TAP	106	240	4
STR	106	336	2
SI_	106	336	2	96	48	7
STR	107	48	0
SI_	107	48	0	96	48	4
TAP	107	96	0
STR	107	144	3
SI_	107	144	3	96	48	6
TAP	107	192	3
STR	107	240	7
SCL	107	240	7	96	240	0
TAP	107	288	7
TAP	107	336	0
STR	109	0	2
SI_	109	0	2	96	48	6
TAP	109	0	3
TAP	109	96	3
TAP	109	192	3
STR	109	192	4
SI_	109	192	4	96	48	0
TAP	109	288	3
STR	110	0	5
SI_	110	0	5	96	48	1
STR	110	96	0
SI_	110	96	0	96	48	4
TAP	110	192	3
TAP	111	0	4
STR	111	0	5
SI_	111	0	5	96	48	1
TAP	111	96	4
STR	111	192	3
SI_	111	192	3	96	48	7
TAP	111	192	4
TAP	111	288	4
STR	112	0	2
SI_	112	0	2	96	48	6
STR	112	96	7
SI_	112	96	7	96	48	3
TAP	112	192	4
STR	113	0	2
SI_	113	0	2	96	48	6
TAP	113	0	3
TAP	113	96	3
TAP	113	192	3
STR	113	192	4
SI_	113	192	4	96	48	0
TAP	113	288	3
STR	114	0	5
SI_	114	0	5	96	48	1
STR	114	96	0
SI_	114	96	0	96	48	4
TAP	114	192	3
STR	115	0	4
SI_	115	0	4	96	48	1
STR	115	0	5
SI_	115	0	5	96	48	0
STR	115	192	2
SI_	115	192	2	96	48	7
STR	115	192	3
SI_	115	192	3	96	48	6
TAP	116	0	4
TAP	116	48	3
TAP	116	96	4
TAP	116	144	2
TAP	116	144	5
TAP	116	192	1
TAP	116	240	0
TAP	116	288	1
TAP	116	336	2
TAP	116	336	7
TAP	117	48	6
TAP	117	96	7
TAP	117	144	0
TAP	117	144	5
TAP	117	240	1
TAP	117	288	0
HLD	117	336	2	96
TAP	118	48	3
STR	118	96	2
SI_	118	96	2	96	48	7
STR	118	96	3
SI_	118	96	3	96	48	6
TAP	118	192	2
TAP	118	192	3
TAP	118	336	5
HLD	118	336	7	96
TAP	119	48	6
TAP	119	96	4
TAP	119	144	5
TAP	119	192	3
TAP	119	240	4
TAP	119	288	3
STR	119	336	3
SF_	119	336	3	96	96	7
TAP	120	48	3
TAP	120	192	6
TAP	120	240	7
TAP	120	288	6
TAP	120	336	0
TAP	120	336	5
TAP	121	48	1
TAP	121	96	0
TAP	121	144	2
TAP	121	144	7
TAP	121	240	6
TAP	121	288	7
HLD	121	336	5	96
TAP	122	48	4
STR	122	96	4
SI_	122	96	4	96	48	1
STR	122	96	5
SI_	122	96	5	96	48	0
TAP	122	192	4
TAP	122	192	5
TAP	122	336	2
TAP	123	0	1
TAP	123	0	3
TAP	123	48	1
TAP	123	48	3
TAP	123	144	5
TAP	123	192	4
TAP	123	240	6
TAP	123	288	0
TAP	123	336	7
STR	124	0	0
SI_	124	0	0	96	48	5
STR	124	48	7
SI_	124	48	7	96	48	2
BRK	124	96	0
BRK	124	144	7
TAP	124	336	1
TAP	125	0	0
TAP	125	0	2
TAP	125	48	0
TAP	125	48	2
TAP	125	144	3
TAP	125	192	4
TAP	125	240	3
TAP	125	288	1
TAP	125	288	6
TAP	125	336	1
TAP	125	336	6
TAP	126	0	0
TAP	126	48	7
TAP	126	96	0
BRK	126	144	2
BRK	126	144	5

T_REC_TAP	480
T_REC_BRK	16
T_REC_XTP	0
T_REC_HLD	36
T_REC_XHO	0
T_REC_STR	133
T_REC_BST	5
T_REC_XST	0
T_REC_TTP	0
T_REC_THO	0
T_REC_SLD	148
T_REC_ALL	818
T_NUM_TAP	613
T_NUM_BRK	21
T_NUM_HLD	36
T_NUM_SLD	148
T_NUM_ALL	818
T_JUDGE_TAP	634
T_JUDGE_HLD	146
T_JUDGE_SLD	148
T_JUDGE_ALL	928
TTM_EACHPAIRS	140
TTM_SCR_TAP	306500
TTM_SCR_BRK	54600
TTM_SCR_HLD	36000
TTM_SCR_SLD	222000
TTM_SCR_ALL	619100
TTM_SCR_S	598500
TTM_SCR_SS	617000
TTM_RAT_ACV	10034

