VERSION	0.00.00	1.03.00
FES_MODE	0
BPM_DEF	212.000	212.000	212.000	212.000
MET_DEF	4	4
RESOLUTION	384
CLK_DEF	384
COMPATIBLE_CODE	MA2

BPM	0	0	212.000
MET	0	0	4	4

TAP	2	0	3
TAP	2	0	4
TAP	2	96	3
TAP	2	96	4
TAP	2	192	3
TAP	2	240	4
TAP	2	288	3
TAP	3	0	3
TAP	3	48	4
TAP	3	96	3
TAP	3	144	4
TAP	3	240	4
TAP	3	288	3
TAP	4	0	3
TAP	4	0	4
TAP	4	96	3
TAP	4	96	4
TAP	4	192	4
TAP	4	240	3
TAP	4	288	4
TAP	5	0	4
TAP	5	48	3
TAP	5	96	4
TAP	5	144	3
TAP	5	192	4
TAP	5	288	1
TAP	5	288	6
TAP	6	0	5
TAP	6	96	4
TAP	6	96	6
TAP	6	192	2
TAP	6	288	1
TAP	6	288	3
TAP	7	0	4
TAP	7	0	5
TAP	7	96	0
TAP	7	96	1
TAP	7	192	2
TAP	7	192	7
HLD	8	0	5	192
TAP	8	96	4
HLD	8	192	2	192
TAP	8	288	3
HLD	9	0	5	96
TAP	9	96	4
TAP	9	192	6
TAP	9	192	7
TAP	9	288	0
TAP	9	288	5
TAP	10	0	2
TAP	10	96	1
TAP	10	96	3
TAP	10	192	5
TAP	10	288	4
TAP	10	288	6
TAP	11	0	2
TAP	11	0	3
TAP	11	96	6
TAP	11	96	7
TAP	11	192	0
TAP	11	192	5
TAP	12	0	1
TAP	12	96	0
TAP	12	96	2
TAP	12	192	6
STR	12	288	5
SUR	12	288	5	96	144	2
TAP	12	288	7
TAP	13	192	0
TAP	13	192	7
TAP	13	240	0
TAP	13	240	7
HLD	13	336	1	240
HLD	13	336	6	240
HLD	14	336	1	240
HLD	14	336	4	240
HLD	15	336	3	240
HLD	15	336	6	240
TAP	17	0	3
TAP	17	0	4
TAP	17	96	2
TAP	17	96	5
TAP	17	192	1
TAP	17	192	6
TAP	17	240	1
TAP	17	240	6
HLD	17	336	5	240
TAP	18	96	4
TAP	18	192	4
TAP	18	288	2
HLD	18	336	2	240
TAP	19	96	3
TAP	19	192	3
TAP	19	288	5
HLD	19	336	5	240
TAP	20	96	4
TAP	20	192	4
TAP	20	288	0
TAP	20	288	7
STR	21	0	3
SI_	21	0	3	96	96	0
STR	21	0	4
SI_	21	0	4	96	96	7
STR	21	336	0
SCR	21	336	0	96	48	3
STR	21	336	7
SCL	21	336	7	96	48	4
STR	22	192	1
SI_	22	192	1	96	48	5
STR	22	192	6
SI_	22	192	6	96	48	2
STR	23	0	0
SSL	23	0	0	96	192	4
HLD	24	0	5	96
HLD	24	96	6	96
HLD	24	192	7	96
HLD	24	288	0	96
HLD	25	0	1	96
HLD	25	96	2	96
HLD	25	192	3	96
STR	25	288	4
SCR	25	288	4	96	384	3
HLD	27	336	3	96
HLD	27	336	4	96
TAP	28	96	3
TAP	28	96	4
TAP	28	192	2
TAP	28	192	5
TAP	28	240	2
STR	28	240	5
SSR	28	240	5	96	240	1
HLD	29	336	2	96
HLD	29	336	3	96
TAP	30	96	2
TAP	30	96	3
TAP	30	192	1
TAP	30	192	4
TAP	31	0	4
TAP	31	96	5
TAP	31	192	3
TAP	31	192	6
HLD	31	336	6	96
HLD	31	336	7	96
TAP	32	96	6
TAP	32	96	7
TAP	32	192	0
TAP	32	192	5
HLD	32	336	0	96
HLD	32	336	1	96
TAP	33	96	0
TAP	33	96	1
TAP	33	192	2
TAP	33	192	7
HLD	33	336	4	96
HLD	33	336	5	96
TAP	34	96	4
TAP	34	96	5
TAP	34	192	3
TAP	34	192	6
TAP	35	0	3
TAP	35	96	2
TAP	35	192	1
TAP	35	192	4
HLD	35	336	0	96
HLD	35	336	1	96
TAP	36	96	0
TAP	36	96	1
TAP	36	192	2
TAP	36	192	7
TAP	36	336	4
TAP	36	336	5
TAP	37	48	6
TAP	37	144	2
TAP	37	144	3
STR	37	240	1
SCL	37	240	1	96	96	6
TAP	38	192	5
TAP	38	288	4
TAP	38	288	5
TAP	39	0	2
TAP	39	96	2
TAP	39	96	3
TAP	39	192	5
TAP	39	288	4
TAP	39	288	6
TAP	40	0	2
TAP	40	96	1
TAP	40	96	3
TAP	40	192	6
TAP	40	288	5
TAP	40	288	7
TAP	41	0	1
TAP	41	96	0
TAP	41	96	2
TAP	41	192	4
TAP	41	192	5
TAP	41	288	3
TAP	41	288	6
TAP	41	336	3
TAP	41	336	6
TAP	43	240	2
TAP	43	288	3
TAP	43	336	1
TAP	43	336	4
TAP	44	48	0
TAP	44	48	7
TAP	44	96	0
TAP	44	96	7
TAP	44	192	1
TAP	44	192	6
TAP	44	240	1
TAP	44	240	6
TAP	44	336	2
STR	44	336	5
SCR	44	336	5	96	192	2
TAP	45	336	0
TAP	45	336	7
TAP	46	48	1
TAP	46	48	6
BRK	46	96	1
BRK	46	96	6
STR	46	192	0
SI_	46	192	0	96	48	5
STR	46	192	1
SI_	46	192	1	96	48	4
TAP	47	96	6
TAP	47	96	7
TAP	47	192	0
TAP	47	192	5
TAP	47	288	6
TAP	47	288	7
STR	47	336	6
SI_	47	336	6	96	48	3
STR	47	336	7
SI_	47	336	7	96	48	2
TAP	48	192	0
TAP	48	192	5
TAP	48	288	3
TAP	48	288	4
TAP	49	0	5
TAP	49	96	4
TAP	49	96	6
TAP	49	192	2
TAP	49	288	1
TAP	49	288	3
TAP	50	0	6
TAP	50	96	0
TAP	50	96	5
TAP	50	192	1
TAP	50	288	2
TAP	50	288	7
TAP	51	0	3
TAP	51	0	4
TAP	51	96	1
TAP	51	96	6
HLD	51	192	4	96
HLD	51	192	5	96
TAP	51	336	4
TAP	51	336	5
TAP	52	48	2
TAP	52	48	7
TAP	52	144	3
TAP	52	144	4
TAP	52	240	1
TAP	52	240	6
TAP	52	336	1
TAP	52	336	6
TAP	53	48	2
TAP	53	48	4
TAP	53	96	2
TAP	53	96	4
TAP	53	192	3
TAP	53	192	5
TAP	53	240	3
TAP	53	240	5
STR	53	336	3
SI_	53	336	3	96	48	0
STR	53	336	4
SI_	53	336	4	96	48	7
STR	54	192	6
SI_	54	192	6	96	48	3
STR	54	192	7
SI_	54	192	7	96	48	2
TAP	55	96	0
TAP	55	96	1
TAP	55	192	2
TAP	55	192	7
TAP	55	288	0
TAP	55	288	1
STR	55	336	0
SI_	55	336	0	96	48	5
STR	55	336	1
SI_	55	336	1	96	48	4
TAP	56	192	0
TAP	56	192	5
TAP	56	288	3
TAP	56	288	4
TAP	57	0	2
TAP	57	96	1
TAP	57	96	3
TAP	57	192	5
TAP	57	288	4
TAP	57	288	6
TAP	58	0	1
TAP	58	96	2
TAP	58	96	7
TAP	58	192	6
TAP	58	288	0
TAP	58	288	5
TAP	59	0	3
TAP	59	0	4
BRK	59	96	1
BRK	59	96	6
HLD	59	192	2	96
HLD	59	192	3	96
TAP	59	336	2
TAP	59	336	3
TAP	60	48	0
TAP	60	48	5
TAP	60	144	0
TAP	60	144	7
TAP	60	240	2
TAP	60	240	5
TAP	60	336	1
TAP	60	336	6
TAP	61	48	3
TAP	61	48	5
TAP	61	96	3
TAP	61	96	5
TAP	61	192	2
TAP	61	192	4
TAP	61	240	2
TAP	61	240	4
STR	61	336	3
SCL	61	336	3	96	144	0
STR	61	336	4
SCR	61	336	4	96	144	7
TAP	63	0	5
TAP	63	96	3
TAP	63	96	6
TAP	63	192	2
TAP	63	288	1
TAP	63	288	4
TAP	64	0	3
TAP	64	0	4
TAP	64	96	0
TAP	64	96	7
TAP	64	192	1
TAP	64	192	6
HLD	65	0	2	192
TAP	65	96	3
HLD	65	192	5	192
TAP	65	288	4
HLD	66	0	0	96
TAP	66	96	7
TAP	66	192	3
TAP	66	192	4
TAP	66	288	1
TAP	66	288	6
TAP	67	0	2
TAP	67	96	1
TAP	67	96	4
TAP	67	192	5
TAP	67	288	3
TAP	67	288	6
TAP	68	0	3
TAP	68	0	4
TAP	68	96	0
TAP	68	96	7
TAP	68	192	1
TAP	68	192	6
TAP	69	0	5
TAP	69	48	4
TAP	69	48	5
TAP	69	192	2
TAP	69	240	2
TAP	69	240	3
TAP	70	0	0
TAP	70	48	7
TAP	70	96	0
TAP	70	144	1
TAP	70	144	6
TAP	71	0	4
HLD	71	0	5	480
TAP	71	192	4
TAP	72	0	4
TAP	72	96	4
TAP	72	192	3
TAP	72	192	6
HLD	73	0	2	480
TAP	73	0	3
TAP	73	192	3
TAP	74	0	3
TAP	74	96	3
TAP	74	192	1
TAP	74	192	4
TAP	75	0	4
HLD	75	0	5	480
TAP	75	192	3
TAP	76	0	4
TAP	76	96	4
TAP	76	192	3
TAP	76	192	6
HLD	77	0	2	480
TAP	77	0	3
TAP	77	192	4
TAP	78	0	3
TAP	78	96	3
TAP	78	192	1
TAP	78	192	4
HLD	79	0	5	288
TAP	79	96	1
TAP	79	192	3
TAP	79	288	4
HLD	80	0	2	288
TAP	80	96	6
TAP	80	192	4
TAP	80	288	3
STR	81	0	6
SI_	81	0	6	96	96	3
STR	81	192	1
SI_	81	192	1	96	96	4
STR	82	0	7
SI_	82	0	7	96	96	3
HLD	82	192	0	96
TAP	82	288	7
STR	82	336	7
SCL	82	336	7	96	240	0
TAP	84	0	1
TAP	84	0	3
TAP	84	96	2
TAP	84	192	4
TAP	84	192	6
TAP	84	288	5
STR	85	0	1
SI_	85	0	1	96	96	4
STR	85	192	6
SI_	85	192	6	96	96	3
STR	86	0	0
SI_	86	0	0	96	96	4
STR	86	192	7
SI_	86	192	7	96	96	3
STR	87	0	0
SCR	87	0	0	96	288	7
TAP	88	288	0
TAP	88	288	7
TAP	89	0	3
TAP	89	0	4
TAP	89	96	3
TAP	89	96	4
TAP	89	192	4
TAP	89	240	3
TAP	89	288	4
TAP	90	0	4
TAP	90	48	3
TAP	90	96	5
TAP	90	144	2
TAP	90	240	3
TAP	90	240	4
TAP	90	288	3
TAP	90	288	4
TAP	91	0	1
TAP	91	0	6
TAP	91	96	1
TAP	91	96	6
TAP	91	192	0
TAP	91	240	7
TAP	91	288	0
TAP	92	0	0
TAP	92	48	7
TAP	92	96	1
TAP	92	144	6
STR	93	0	1
SV_	93	0	1	96	144	4
STR	93	0	7
SV_	93	0	7	96	144	4
HLD	93	336	0	96
HLD	93	336	7	96
TAP	94	96	0
TAP	94	96	7
BRK	94	192	1
BRK	94	192	6
STR	94	336	3
SI_	94	336	3	96	48	0
STR	94	336	4
SI_	94	336	4	96	48	7
TAP	95	192	4
TAP	95	192	5
TAP	95	288	3
TAP	95	288	6
TAP	96	0	2
TAP	96	0	3
TAP	96	96	1
TAP	96	96	4
TAP	96	192	6
TAP	96	192	7
TAP	96	288	0
TAP	96	288	5
TAP	97	0	3
TAP	97	0	4
BRK	97	96	1
BRK	97	96	6
HLD	97	192	2	96
HLD	97	192	5	96
TAP	97	336	2
TAP	97	336	5
STR	98	48	3
SI_	98	48	3	96	48	0
TAP	98	48	4
BST	98	144	4
SI_	98	144	4	96	48	7
BRK	98	240	3
TAP	98	336	1
TAP	98	336	6
TAP	99	48	0
TAP	99	48	6
TAP	99	96	0
TAP	99	96	6
TAP	99	192	1
TAP	99	192	7
TAP	99	240	1
TAP	99	240	7
STR	99	336	3
SI_	99	336	3	96	48	0
STR	99	336	4
SI_	99	336	4	96	48	7
STR	100	192	2
SI_	100	192	2	96	48	7
STR	100	192	3
SI_	100	192	3	96	48	6
TAP	101	96	6
TAP	101	96	7
TAP	101	192	0
TAP	101	192	5
TAP	101	288	4
TAP	101	288	5
STR	101	336	4
SI_	101	336	4	96	48	1
STR	101	336	5
SI_	101	336	5	96	48	0
TAP	102	192	2
TAP	102	192	7
TAP	102	288	3
TAP	102	288	4
TAP	103	0	5
TAP	103	96	3
TAP	103	96	6
TAP	103	192	2
TAP	103	288	1
TAP	103	288	4
TAP	104	0	5
TAP	104	96	3
TAP	104	96	6
TAP	104	192	0
TAP	104	192	1
TAP	104	288	2
TAP	104	288	7
TAP	105	0	3
TAP	105	0	4
BRK	105	96	1
BRK	105	96	6
HLD	105	192	4	96
HLD	105	192	5	96
TAP	105	336	4
TAP	105	336	5
TAP	106	48	2
TAP	106	48	7
TAP	106	144	2
TAP	106	144	3
TAP	106	240	0
TAP	106	240	5
TAP	106	336	3
TAP	106	336	4
TAP	107	48	0
TAP	107	48	6
TAP	107	96	0
TAP	107	96	6
TAP	107	192	1
TAP	107	192	7
TAP	107	240	1
TAP	107	240	7
STR	107	336	3
SCL	107	336	3	96	96	0
STR	107	336	4
SCR	107	336	4	96	96	7
TAP	109	0	2
TAP	109	96	1
TAP	109	96	4
TAP	109	192	5
TAP	109	288	3
TAP	109	288	6
TAP	110	0	3
TAP	110	0	4
TAP	110	96	6
TAP	110	96	7
TAP	110	192	0
TAP	110	192	5
HLD	111	0	5	192
TAP	111	96	4
HLD	111	192	2	192
TAP	111	288	3
HLD	112	0	7	96
TAP	112	96	0
TAP	112	192	3
TAP	112	192	4
TAP	112	288	1
TAP	112	288	6
TAP	113	0	5
TAP	113	96	3
TAP	113	96	6
TAP	113	192	2
TAP	113	288	1
TAP	113	288	4
TAP	114	0	3
TAP	114	0	4
TAP	114	96	0
TAP	114	96	1
TAP	114	192	2
TAP	114	192	7
TAP	115	0	4
TAP	115	0	5
TAP	115	48	4
TAP	115	48	5
TAP	115	192	2
TAP	115	192	3
TAP	115	240	2
TAP	115	240	3
TAP	116	0	1
TAP	116	0	6
TAP	116	96	1
TAP	116	96	6
TAP	116	192	3
TAP	116	192	4
TAP	116	288	0
TAP	116	288	7
TAP	117	0	5
TAP	117	48	4
TAP	117	96	3
TAP	117	96	6
TAP	117	192	2
TAP	117	240	3
TAP	117	288	1
TAP	117	288	4
STR	118	0	0
SI_	118	0	0	96	48	5
STR	118	0	1
SI_	118	0	1	96	48	4
TAP	118	192	2
TAP	118	192	7
TAP	118	288	3
TAP	118	288	4
HLD	119	0	6	192
TAP	119	96	7
HLD	119	192	1	192
TAP	119	288	0
HLD	120	0	4	96
TAP	120	96	3
TAP	120	192	0
TAP	120	192	7
TAP	120	288	1
TAP	120	288	6
TAP	121	0	2
TAP	121	48	3
TAP	121	96	1
TAP	121	96	4
TAP	121	192	5
TAP	121	240	4
TAP	121	288	3
TAP	121	288	6
STR	122	0	6
SI_	122	0	6	96	48	3
STR	122	0	7
SI_	122	0	7	96	48	2
TAP	122	192	0
TAP	122	192	5
TAP	122	288	3
TAP	122	288	4
TAP	123	0	4
TAP	123	0	6
TAP	123	96	5
TAP	123	192	1
TAP	123	192	3
TAP	123	288	2
TAP	124	0	3
TAP	124	0	5
TAP	124	96	4
TAP	124	192	3
TAP	124	288	3
TAP	124	288	4
TAP	125	0	0
TAP	125	0	6
TAP	125	48	0
TAP	125	48	6
TAP	125	192	1
TAP	125	192	7
TAP	125	240	1
TAP	125	240	7
BRK	126	0	1
BRK	126	0	6

T_REC_TAP	527
T_REC_BRK	13
T_REC_XTP	0
T_REC_HLD	57
T_REC_XHO	0
T_REC_STR	50
T_REC_BST	1
T_REC_XST	0
T_REC_TTP	0
T_REC_THO	0
T_REC_SLD	51
T_REC_ALL	699
T_NUM_TAP	577
T_NUM_BRK	14
T_NUM_HLD	57
T_NUM_SLD	51
T_NUM_ALL	699
T_JUDGE_TAP	591
T_JUDGE_HLD	197
T_JUDGE_SLD	51
T_JUDGE_ALL	839
TTM_EACHPAIRS	241
TTM_SCR_TAP	288500
TTM_SCR_BRK	36400
TTM_SCR_HLD	57000
TTM_SCR_SLD	76500
TTM_SCR_ALL	458400
TTM_SCR_S	443300
TTM_SCR_SS	457000
TTM_RAT_ACV	10030

