VERSION	0.00.00	1.03.00
FES_MODE	0
BPM_DEF	212.000	212.000	212.000	212.000
MET_DEF	4	4
RESOLUTION	384
CLK_DEF	384
COMPATIBLE_CODE	MA2

BPM	0	0	212.000
MET	0	0	4	4

TAP	6	0	2
TAP	6	96	2
TAP	6	192	2
TAP	7	0	5
TAP	7	96	5
TAP	7	192	5
TAP	8	0	2
TAP	8	96	2
TAP	8	192	2
TAP	9	0	5
TAP	9	96	5
TAP	9	192	5
TAP	10	0	2
TAP	10	96	2
TAP	10	192	3
TAP	11	0	5
TAP	11	96	5
TAP	11	192	4
TAP	12	0	3
TAP	12	96	4
TAP	12	192	3
TAP	13	0	3
TAP	13	0	4
TAP	13	96	3
TAP	13	96	4
BRK	13	192	2
BRK	13	192	5
TAP	14	0	2
TAP	14	96	3
TAP	14	192	2
TAP	15	0	5
TAP	15	96	4
TAP	15	192	5
TAP	16	0	2
TAP	16	96	3
TAP	16	192	2
TAP	17	0	5
TAP	17	96	4
TAP	17	192	5
TAP	18	0	1
TAP	18	96	0
TAP	18	192	1
TAP	19	0	6
TAP	19	96	7
TAP	19	192	6
TAP	20	0	1
TAP	20	96	0
TAP	20	192	1
TAP	21	0	6
TAP	21	96	7
TAP	21	192	6
TAP	22	0	0
TAP	22	0	1
STR	22	192	0
SCL	22	192	0	96	192	5
STR	22	192	1
SCR	22	192	1	96	192	4
TAP	24	0	0
TAP	24	0	6
STR	24	192	0
SI_	24	192	0	96	192	4
STR	24	192	6
SI_	24	192	6	96	192	2
HLD	26	0	5	192
TAP	26	192	4
HLD	27	0	2	192
TAP	27	192	3
TAP	28	0	4
TAP	28	96	4
TAP	28	192	3
TAP	28	288	3
TAP	29	0	4
TAP	29	96	3
TAP	29	192	2
TAP	29	192	5
HLD	30	0	2	192
TAP	30	192	3
HLD	31	0	5	192
TAP	31	192	4
TAP	32	0	2
TAP	32	96	3
TAP	32	192	1
TAP	32	192	4
TAP	33	0	5
TAP	33	96	4
TAP	33	192	3
TAP	33	192	6
HLD	34	0	1	192
TAP	34	192	0
HLD	35	0	6	192
TAP	35	192	7
TAP	36	0	1
TAP	36	96	0
TAP	36	192	2
TAP	36	192	7
TAP	37	0	6
TAP	37	96	7
TAP	37	192	0
TAP	37	192	5
HLD	38	0	2	192
TAP	38	192	3
HLD	39	0	5	192
TAP	39	192	4
HLD	40	0	1	192
TAP	40	192	2
HLD	41	0	6	192
TAP	41	192	5
BST	42	0	0
SCR	42	0	0	96	480	6
STR	44	0	7
SCL	44	0	7	96	480	1
TAP	45	336	0
TAP	45	336	7
TAP	47	0	2
TAP	47	96	2
TAP	47	192	3
TAP	47	288	3
TAP	48	0	2
TAP	48	96	3
TAP	48	192	1
TAP	48	192	4
TAP	49	0	5
TAP	49	96	5
TAP	49	192	4
TAP	49	288	4
TAP	50	0	5
TAP	50	96	4
TAP	50	192	3
TAP	50	192	6
TAP	51	0	2
TAP	51	96	2
TAP	51	192	5
TAP	51	288	5
STR	52	0	3
SI_	52	0	3	96	192	0
STR	52	0	4
SI_	52	0	4	96	192	7
TAP	53	0	1
TAP	53	96	1
TAP	53	192	6
TAP	53	288	6
HLD	54	0	0	96
HLD	54	0	7	96
TAP	54	192	0
TAP	54	192	7
TAP	55	0	1
TAP	55	96	1
TAP	55	192	0
TAP	55	288	0
TAP	56	0	1
TAP	56	96	0
TAP	56	192	2
TAP	56	192	7
TAP	57	0	6
TAP	57	96	6
TAP	57	192	7
TAP	57	288	7
TAP	58	0	6
TAP	58	96	7
TAP	58	192	0
TAP	58	192	5
TAP	59	0	5
TAP	59	96	5
TAP	59	192	2
TAP	59	288	2
STR	60	0	3
SI_	60	0	3	96	192	0
STR	60	0	4
SI_	60	0	4	96	192	7
TAP	61	0	6
TAP	61	96	6
TAP	61	192	1
TAP	61	288	1
HLD	62	0	0	96
HLD	62	0	7	96
TAP	62	192	0
TAP	62	192	7
TAP	63	0	6
TAP	63	96	6
TAP	63	192	5
TAP	63	288	5
TAP	64	0	4
TAP	64	96	4
TAP	64	192	2
TAP	64	192	3
TAP	65	0	1
TAP	65	96	1
TAP	65	192	2
TAP	65	288	2
TAP	66	0	3
TAP	66	96	3
TAP	66	192	4
TAP	66	192	5
TAP	67	0	6
TAP	67	96	6
TAP	67	192	5
TAP	67	288	5
TAP	68	0	4
TAP	68	96	4
TAP	68	192	2
TAP	68	192	3
TAP	69	0	3
TAP	69	0	4
TAP	69	192	2
TAP	69	192	5
TAP	70	0	1
TAP	70	0	6
BRK	70	96	1
BRK	70	96	6
STR	71	0	0
SI_	71	0	0	96	192	3
STR	72	0	7
SI_	72	0	7	96	192	4
STR	73	0	1
SI_	73	0	1	96	192	4
STR	74	0	6
SI_	74	0	6	96	192	3
STR	75	0	2
SI_	75	0	2	96	192	7
STR	76	0	5
SI_	76	0	5	96	192	0
STR	77	0	3
SI_	77	0	3	96	192	7
STR	78	0	4
SI_	78	0	4	96	192	0
HLD	79	0	2	192
TAP	79	192	3
HLD	80	0	5	192
TAP	80	192	4
HLD	81	0	1	192
TAP	81	192	3
HLD	82	0	6	192
TAP	82	192	4
HLD	83	0	0	192
HLD	83	0	7	192
TAP	84	0	1
TAP	84	0	6
TAP	84	96	1
TAP	84	96	6
TAP	84	192	0
TAP	84	192	7
STR	85	0	0
SI_	85	0	0	96	192	5
STR	85	0	1
SI_	85	0	1	96	192	4
STR	86	0	6
SI_	86	0	6	96	192	3
STR	86	0	7
SI_	86	0	7	96	192	2
TAP	87	0	1
TAP	87	96	1
TAP	87	192	0
TAP	87	288	0
TAP	88	0	0
TAP	88	0	1
TAP	88	96	2
TAP	88	96	7
TAP	88	192	3
TAP	88	192	6
TAP	89	0	6
TAP	89	96	6
TAP	89	192	7
TAP	89	288	7
TAP	90	0	6
TAP	90	0	7
TAP	90	96	0
TAP	90	96	5
TAP	90	192	1
TAP	90	192	4
TAP	91	0	3
TAP	91	0	4
TAP	91	96	3
TAP	91	96	4
TAP	91	192	2
TAP	91	192	5
TAP	91	288	2
TAP	91	288	5
TAP	92	0	1
TAP	92	0	6
BRK	92	96	1
BRK	92	96	6
HLD	93	0	3	192
HLD	93	0	4	192
TAP	94	0	1
TAP	94	0	6
TAP	94	96	1
TAP	94	96	6
BRK	94	192	0
BRK	94	192	7
TAP	95	0	1
TAP	95	96	0
TAP	95	96	1
TAP	95	192	6
TAP	95	288	6
TAP	95	288	7
TAP	96	0	1
TAP	96	96	0
TAP	96	96	1
TAP	96	192	2
TAP	96	192	7
TAP	97	0	5
TAP	97	96	4
TAP	97	96	5
TAP	97	192	2
TAP	97	288	2
TAP	97	288	3
STR	98	0	3
SI_	98	0	3	96	192	0
STR	98	0	4
SI_	98	0	4	96	192	7
TAP	99	0	6
TAP	99	96	6
TAP	99	96	7
TAP	99	192	1
TAP	99	288	0
TAP	99	288	1
HLD	100	0	3	96
HLD	100	0	4	96
TAP	100	192	2
TAP	100	192	5
TAP	101	0	6
TAP	101	96	6
TAP	101	96	7
TAP	101	192	1
TAP	101	288	0
TAP	101	288	1
TAP	102	0	6
TAP	102	96	6
TAP	102	96	7
TAP	102	192	0
TAP	102	192	5
TAP	103	0	1
TAP	103	96	0
TAP	103	96	1
TAP	103	192	6
TAP	103	288	6
TAP	103	288	7
TAP	104	0	1
TAP	104	96	0
TAP	104	96	1
TAP	104	192	2
TAP	104	192	7
TAP	105	0	2
TAP	105	96	2
TAP	105	96	3
TAP	105	192	5
TAP	105	288	4
TAP	105	288	5
TAP	106	0	2
TAP	106	96	1
TAP	106	96	3
TAP	106	192	5
TAP	106	288	4
TAP	106	288	6
TAP	107	0	1
TAP	107	96	0
TAP	107	96	1
TAP	107	192	6
TAP	107	288	6
TAP	107	288	7
STR	108	0	0
SI_	108	0	0	96	192	3
STR	108	0	7
SI_	108	0	7	96	192	4
TAP	109	0	1
TAP	109	96	2
TAP	109	192	3
TAP	109	288	4
TAP	110	0	5
TAP	110	96	6
TAP	110	192	0
TAP	110	192	7
TAP	111	0	6
TAP	111	96	5
TAP	111	192	4
TAP	111	288	3
TAP	112	0	2
TAP	112	96	1
TAP	112	192	0
TAP	112	192	7
TAP	113	0	1
TAP	113	96	2
TAP	113	192	3
TAP	113	288	4
TAP	114	0	5
TAP	114	96	6
TAP	114	192	0
TAP	114	192	7
TAP	115	0	0
TAP	115	0	1
TAP	115	192	6
TAP	115	192	7
TAP	116	0	0
TAP	116	0	7
BRK	116	96	0
BRK	116	96	7
TAP	117	0	0
TAP	117	96	1
TAP	117	192	2
TAP	117	288	3
TAP	118	0	4
TAP	118	0	5
TAP	118	96	4
TAP	118	96	5
TAP	118	192	6
TAP	118	192	7
TAP	119	0	7
TAP	119	96	6
TAP	119	192	5
TAP	119	288	4
TAP	120	0	2
TAP	120	0	3
TAP	120	96	2
TAP	120	96	3
TAP	120	192	0
TAP	120	192	1
TAP	121	0	0
TAP	121	96	1
TAP	121	192	2
TAP	121	288	3
TAP	122	0	4
TAP	122	0	5
TAP	122	96	4
TAP	122	96	5
TAP	122	192	6
TAP	122	192	7
TAP	123	0	0
TAP	123	0	1
TAP	123	192	6
TAP	123	192	7
TAP	124	0	1
TAP	124	0	6
BRK	124	96	0
BRK	124	96	7
TAP	125	0	1
TAP	125	0	3
TAP	125	192	4
TAP	125	192	6
TAP	126	0	0
TAP	126	0	7
BRK	126	96	1
BRK	126	96	6

T_REC_TAP	352
T_REC_BRK	14
T_REC_XTP	0
T_REC_HLD	24
T_REC_XHO	0
T_REC_STR	25
T_REC_BST	1
T_REC_XST	0
T_REC_TTP	0
T_REC_THO	0
T_REC_SLD	26
T_REC_ALL	442
T_NUM_TAP	377
T_NUM_BRK	15
T_NUM_HLD	24
T_NUM_SLD	26
T_NUM_ALL	442
T_JUDGE_TAP	392
T_JUDGE_HLD	84
T_JUDGE_SLD	26
T_JUDGE_ALL	502
TTM_EACHPAIRS	102
TTM_SCR_TAP	188500
TTM_SCR_BRK	39000
TTM_SCR_HLD	24000
TTM_SCR_SLD	39000
TTM_SCR_ALL	290500
TTM_SCR_S	280350
TTM_SCR_SS	289000
TTM_RAT_ACV	10051

