VERSION	0.00.00	1.03.00
FES_MODE	0
BPM_DEF	212.000	212.000	212.000	212.000
MET_DEF	4	4
RESOLUTION	384
CLK_DEF	384
COMPATIBLE_CODE	MA2

BPM	0	0	212.000
MET	0	0	4	4

TAP	6	0	0
TAP	6	192	0
TAP	7	0	0
TAP	7	192	0
TAP	8	0	1
TAP	8	192	1
TAP	9	0	1
TAP	9	192	1
TAP	10	0	2
TAP	10	192	2
TAP	11	0	2
TAP	11	192	2
TAP	12	0	3
TAP	12	192	3
TAP	13	0	3
TAP	13	192	3
TAP	14	0	3
TAP	14	0	4
TAP	15	0	3
TAP	15	0	4
TAP	16	0	4
TAP	16	0	5
TAP	17	0	4
TAP	17	0	5
TAP	18	0	2
TAP	18	0	3
TAP	19	0	2
TAP	19	0	3
TAP	20	0	3
TAP	20	192	4
TAP	21	0	3
BRK	21	192	3
BRK	21	192	4
TAP	22	0	4
TAP	22	96	4
TAP	22	192	4
TAP	23	0	5
TAP	23	96	5
TAP	23	192	5
TAP	24	0	6
TAP	24	96	6
TAP	24	192	6
TAP	25	0	7
TAP	25	96	0
TAP	25	192	7
HLD	26	0	0	384
STR	28	0	0
SI_	28	0	0	96	288	4
TAP	30	0	5
TAP	30	192	5
TAP	31	0	6
TAP	31	192	6
STR	32	0	7
SI_	32	0	7	96	288	3
TAP	34	0	2
TAP	34	192	2
TAP	35	0	1
TAP	35	192	1
HLD	36	0	0	192
HLD	36	0	7	192
TAP	37	0	0
TAP	37	0	7
TAP	38	0	0
TAP	38	192	0
TAP	39	0	1
TAP	39	192	1
TAP	40	0	2
TAP	40	192	2
TAP	41	0	3
TAP	41	192	3
HLD	42	0	2	384
HLD	42	0	4	384
HLD	44	0	3	384
HLD	44	0	5	384
TAP	46	0	1
TAP	46	0	6
TAP	47	0	0
TAP	47	96	0
TAP	47	192	0
TAP	48	0	7
TAP	48	96	7
TAP	48	192	7
TAP	49	0	6
TAP	49	96	6
TAP	49	192	6
TAP	50	0	5
TAP	50	96	5
TAP	50	192	4
TAP	50	192	5
HLD	51	0	3	192
HLD	52	0	4	192
TAP	53	0	3
TAP	53	96	3
TAP	53	192	2
TAP	53	192	4
TAP	54	0	4
TAP	54	96	4
TAP	54	192	3
TAP	54	192	5
TAP	55	0	4
TAP	55	96	4
TAP	55	192	4
TAP	56	0	3
TAP	56	96	3
TAP	56	192	3
TAP	57	0	2
TAP	57	96	2
TAP	57	192	2
TAP	58	0	1
TAP	58	96	1
TAP	58	192	0
TAP	58	192	1
HLD	59	0	7	192
HLD	60	0	0	192
TAP	61	0	7
TAP	61	96	7
TAP	61	192	0
TAP	61	192	6
TAP	62	0	0
TAP	62	96	0
TAP	62	192	1
TAP	62	192	7
TAP	63	0	0
TAP	63	192	0
TAP	64	0	1
TAP	64	96	1
TAP	64	192	0
TAP	64	192	1
TAP	65	0	2
TAP	65	192	2
TAP	66	0	3
TAP	66	96	3
TAP	66	192	3
TAP	66	192	4
TAP	67	0	4
TAP	67	192	4
TAP	68	0	5
TAP	68	96	5
TAP	68	192	4
TAP	68	192	5
TAP	69	0	6
TAP	69	0	7
TAP	69	192	0
TAP	69	192	1
HLD	70	0	0	192
HLD	70	0	7	192
TAP	71	0	0
TAP	72	0	0
TAP	73	0	2
TAP	74	0	2
TAP	75	0	4
TAP	76	0	4
TAP	77	0	6
TAP	78	0	6
TAP	78	0	7
TAP	79	0	7
TAP	79	192	7
TAP	80	0	7
TAP	81	0	5
TAP	81	192	5
TAP	82	0	5
TAP	83	0	3
TAP	83	192	3
TAP	84	0	3
TAP	85	0	1
TAP	85	192	1
TAP	86	0	0
TAP	86	0	1
HLD	87	0	1	384
HLD	87	0	6	384
TAP	89	0	0
TAP	89	96	0
TAP	89	192	0
TAP	90	0	7
TAP	90	96	7
TAP	90	192	7
TAP	91	0	0
TAP	91	96	7
TAP	91	192	0
TAP	91	288	7
TAP	92	0	0
TAP	92	96	7
BRK	93	0	0
TAP	94	0	0
TAP	94	96	0
TAP	94	192	0
TAP	95	0	1
TAP	95	96	1
TAP	95	192	1
TAP	96	0	2
TAP	96	96	3
TAP	96	192	2
TAP	97	0	2
TAP	97	0	3
TAP	97	192	2
TAP	97	192	4
TAP	98	0	4
TAP	98	0	5
TAP	98	192	3
TAP	98	192	5
TAP	99	0	4
TAP	99	96	3
TAP	99	192	4
HLD	100	0	3	192
HLD	100	0	5	192
TAP	101	0	3
TAP	101	96	3
TAP	101	192	3
TAP	102	0	4
TAP	102	96	4
TAP	102	192	4
TAP	103	0	5
TAP	103	96	5
TAP	103	192	5
TAP	104	0	6
TAP	104	96	7
TAP	104	192	6
TAP	105	0	6
TAP	105	0	7
TAP	105	192	0
TAP	105	192	6
TAP	106	0	0
TAP	106	0	1
TAP	106	192	1
TAP	106	192	7
TAP	107	0	0
TAP	107	96	7
TAP	107	192	0
HLD	108	0	0	192
HLD	108	0	7	192
TAP	109	0	6
TAP	109	0	7
TAP	109	192	6
TAP	109	192	7
TAP	110	0	0
TAP	110	0	1
TAP	110	96	0
TAP	110	96	1
TAP	110	192	0
TAP	110	192	1
TAP	111	0	2
TAP	111	96	3
TAP	111	192	2
TAP	112	0	5
TAP	112	96	4
TAP	112	192	5
TAP	113	0	4
TAP	113	0	5
TAP	113	192	4
TAP	113	192	5
TAP	114	0	2
TAP	114	0	3
TAP	114	96	2
TAP	114	96	3
TAP	114	192	2
TAP	114	192	3
TAP	115	0	1
TAP	115	96	0
TAP	115	192	1
HLD	116	0	6	192
HLD	116	0	7	192
TAP	117	0	0
TAP	117	0	1
TAP	117	192	0
TAP	117	192	1
TAP	118	0	6
TAP	118	0	7
TAP	118	96	6
TAP	118	96	7
TAP	118	192	6
TAP	118	192	7
TAP	119	0	5
TAP	119	96	4
TAP	119	192	5
TAP	120	0	2
TAP	120	96	3
TAP	120	192	2
TAP	121	0	2
TAP	121	0	3
TAP	121	192	2
TAP	121	192	3
TAP	122	0	4
TAP	122	0	5
TAP	122	96	4
TAP	122	96	5
TAP	122	192	4
TAP	122	192	5
TAP	123	0	6
TAP	123	0	7
TAP	123	192	0
TAP	123	192	1
HLD	124	0	0	192
HLD	124	0	7	192
TAP	125	0	0
TAP	125	0	1
TAP	125	192	6
TAP	125	192	7
BRK	126	0	0

T_REC_TAP	267
T_REC_BRK	4
T_REC_XTP	0
T_REC_HLD	23
T_REC_XHO	0
T_REC_STR	2
T_REC_BST	0
T_REC_XST	0
T_REC_TTP	0
T_REC_THO	0
T_REC_SLD	2
T_REC_ALL	298
T_NUM_TAP	269
T_NUM_BRK	4
T_NUM_HLD	23
T_NUM_SLD	2
T_NUM_ALL	298
T_JUDGE_TAP	273
T_JUDGE_HLD	120
T_JUDGE_SLD	2
T_JUDGE_ALL	395
TTM_EACHPAIRS	63
TTM_SCR_TAP	134500
TTM_SCR_BRK	10400
TTM_SCR_HLD	23000
TTM_SCR_SLD	3000
TTM_SCR_ALL	170900
TTM_SCR_S	165400
TTM_SCR_SS	170500
TTM_RAT_ACV	10023

