VERSION	0.00.00	1.03.00
FES_MODE	0
BPM_DEF	172.000	172.000	172.000	172.000
MET_DEF	4	4
RESOLUTION	384
CLK_DEF	384
COMPATIBLE_CODE	MA2

BPM	0	0	172.000
MET	0	0	4	4
MET	60	0	4	3
MET	60	288	4	4

HLD	1	0	1	336
TAP	1	96	2
TAP	1	144	2
TAP	1	192	3
TAP	1	240	3
TAP	1	288	4
HLD	1	336	4	432
TAP	2	48	5
TAP	2	96	5
TAP	2	144	6
TAP	2	192	6
TAP	2	240	7
TAP	2	288	7
TAP	2	336	0
HLD	3	0	0	336
TAP	3	96	5
TAP	3	144	5
TAP	3	192	4
TAP	3	240	4
TAP	3	288	3
STR	3	336	3
SI_	3	336	3	96	48	7
STR	4	48	1
SI_	4	48	1	96	48	5
TAP	4	48	3
TAP	4	144	1
TAP	4	144	7
STR	4	192	7
SF_	4	192	7	96	48	3
BRK	4	288	7
TAP	5	0	1
TAP	5	48	0
TAP	5	96	2
TAP	5	144	7
TAP	5	192	3
STR	5	240	3
SUL	5	240	3	96	48	7
SLL	5	240	3	96	48	7
TAP	5	336	3
TAP	6	48	6
TAP	6	96	5
TAP	6	144	4
STR	6	192	3
SCR	6	192	3	96	48	6
TAP	6	240	2
TAP	6	288	1
TAP	6	336	0
TAP	7	0	6
TAP	7	48	7
TAP	7	96	5
TAP	7	144	0
TAP	7	192	4
STR	7	240	4
SUR	7	240	4	96	48	0
SLR	7	240	4	96	48	0
TAP	7	336	4
TAP	8	48	1
TAP	8	96	2
TAP	8	144	3
STR	8	192	4
SCL	8	192	4	96	48	1
TAP	8	240	5
TAP	8	288	6
TAP	8	336	7
STR	9	0	6
SI_	9	0	6	96	48	2
TAP	9	96	0
STR	9	144	0
SI_	9	144	0	96	48	4
STR	9	240	5
SI_	9	240	5	96	48	1
HLD	9	336	3	240
TAP	10	48	0
TAP	10	96	7
TAP	10	144	6
TAP	10	192	5
TAP	10	240	4
TAP	10	288	3
STR	11	0	2
SI_	11	0	2	96	48	6
TAP	11	96	7
STR	11	144	7
SI_	11	144	7	96	48	3
TAP	11	240	0
TAP	11	288	1
TAP	11	336	2
TAP	12	0	3
TAP	12	0	4
TAP	12	48	3
TAP	12	48	4
TAP	12	96	2
TAP	12	96	5
TAP	12	144	2
TAP	12	144	5
TAP	12	192	1
TAP	12	216	6
TAP	12	240	1
TAP	12	264	6
TAP	12	288	0
TAP	12	312	7
TAP	12	336	0
HLD	13	0	6	144
TAP	13	96	5
TAP	13	144	5
TAP	13	240	0
TAP	13	240	7
TAP	13	288	1
TAP	13	288	6
HLD	14	0	1	144
TAP	14	96	2
TAP	14	144	2
TAP	14	240	1
TAP	14	240	6
STR	14	288	0
SCR	14	288	0	96	192	7
TAP	14	288	7
TAP	15	288	0
TAP	15	288	7
TAP	15	336	1
TAP	15	336	6
TAP	16	48	4
TAP	16	96	3
TAP	16	144	4
TAP	16	240	2
TAP	16	240	5
TAP	16	288	2
TAP	16	288	5
STR	17	0	1
SI_	17	0	1	96	48	4
TAP	17	48	4
TAP	17	96	1
STR	17	192	6
SI_	17	192	6	96	48	3
TAP	17	240	3
TAP	17	288	6
STR	18	0	2
SI_	18	0	2	96	48	7
TAP	18	48	3
TAP	18	96	2
STR	18	192	5
SI_	18	192	5	96	48	0
TAP	18	240	4
TAP	18	288	5
STR	19	0	2
SI_	19	0	2	96	48	7
STR	19	96	4
SI_	19	96	4	96	48	7
STR	19	192	3
SI_	19	192	3	96	48	7
TAP	20	0	7
TAP	20	48	0
TAP	20	48	6
TAP	20	96	1
TAP	20	96	5
TAP	20	144	2
TAP	20	144	4
STR	20	192	3
SF_	20	192	3	96	48	7
BRK	20	288	3
TAP	21	0	0
STR	21	48	7
SCR	21	48	7	96	96	3
TAP	21	96	6
TAP	21	144	5
TAP	21	240	7
TAP	21	288	5
TAP	21	288	6
TAP	22	0	7
STR	22	48	0
SCL	22	48	0	96	96	4
TAP	22	96	1
TAP	22	144	2
TAP	22	240	0
TAP	22	288	1
TAP	22	288	2
STR	23	0	3
SCL	23	0	3	96	96	0
SCR	23	0	3	96	96	6
TAP	23	240	7
TAP	23	288	0
TAP	23	288	6
TAP	23	336	1
TAP	23	336	5
TAP	24	0	2
TAP	24	24	3
TAP	24	48	2
TAP	24	96	5
TAP	24	120	4
TAP	24	144	5
TAP	24	192	1
TAP	24	240	6
STR	24	288	0
SI_	24	288	0	96	48	4
TAP	24	288	7
TAP	25	0	0
STR	25	0	5
SI_	25	0	5	96	48	1
STR	25	96	3
SCL	25	96	3	96	48	0
TAP	25	96	5
TAP	25	192	7
TAP	25	240	6
STR	25	288	5
SI_	25	288	5	96	48	1
STR	26	0	0
SI_	26	0	0	96	48	4
TAP	26	0	5
TAP	26	96	0
STR	26	96	7
SCL	26	96	7	96	48	4
TAP	26	192	3
TAP	26	288	2
TAP	26	288	3
TAP	26	336	1
TAP	26	336	4
STR	27	0	0
SI_	27	0	0	96	48	2
HLD	27	0	5	192
STR	27	96	0
SI_	27	96	0	96	48	4
TAP	27	192	0
TAP	27	288	6
HLD	27	336	6	240
TAP	28	48	0
TAP	28	96	1
TAP	28	144	2
TAP	28	192	3
TAP	28	288	0
TAP	28	288	7
HLD	29	0	2	192
STR	29	0	7
SI_	29	0	7	96	48	5
STR	29	96	7
SI_	29	96	7	96	48	3
TAP	29	192	7
TAP	29	288	1
HLD	29	336	1	240
TAP	30	48	7
TAP	30	96	6
TAP	30	144	5
STR	30	192	4
SI_	30	192	4	96	48	1
SI_	30	192	4	96	48	7
TAP	30	288	4
TAP	31	0	0
TAP	31	48	0
TAP	31	96	6
TAP	31	144	6
STR	31	192	3
SI_	31	192	3	96	48	7
TAP	31	240	3
TAP	31	288	6
TAP	31	336	5
TAP	32	0	4
TAP	32	48	4
TAP	32	96	2
TAP	32	144	2
STR	32	192	7
SI_	32	192	7	96	48	3
TAP	32	240	7
TAP	32	288	2
TAP	32	336	1
STR	33	0	0
SF_	33	0	0	96	48	4
STR	33	192	4
SF_	33	192	4	96	48	0
STR	34	0	2
SLL	34	0	2	96	96	3
STR	34	0	6
SLL	34	0	6	96	96	7
TAP	34	240	2
TAP	34	240	6
TAP	34	288	1
TAP	34	288	5
STR	35	0	1
SI_	35	0	1	96	48	4
STR	35	0	4
SI_	35	0	4	96	48	0
STR	35	192	3
SI_	35	192	3	96	48	7
STR	35	192	6
SI_	35	192	6	96	48	3
TAP	36	0	7
TAP	36	48	0
TAP	36	48	6
TAP	36	96	1
TAP	36	96	5
STR	36	144	2
SV_	36	144	2	96	48	0
STR	36	144	4
SV_	36	144	4	96	48	6
STR	37	0	3
SI_	37	0	3	96	48	7
STR	37	0	6
SI_	37	0	6	96	48	3
STR	37	192	1
SI_	37	192	1	96	48	4
STR	37	192	4
SI_	37	192	4	96	48	0
TAP	38	0	0
TAP	38	48	1
TAP	38	48	7
TAP	38	96	2
TAP	38	96	6
STR	38	144	3
SV_	38	144	3	96	48	1
STR	38	144	5
SV_	38	144	5	96	48	7
STR	39	0	6
SI_	39	0	6	96	96	1
STR	39	96	1
SI_	39	96	1	96	96	4
STR	39	192	4
SI_	39	192	4	96	96	7
STR	39	288	7
SCL	39	288	7	96	144	3
SCR	39	288	7	96	144	3
TAP	40	192	3
TAP	40	240	4
TAP	40	288	3
TAP	40	336	4
TAP	41	0	2
TAP	41	48	5
TAP	41	72	4
TAP	41	96	5
TAP	41	144	2
TAP	41	168	3
TAP	41	192	1
TAP	41	240	5
TAP	41	264	4
TAP	41	288	6
TAP	41	336	0
TAP	41	336	7
TAP	42	48	4
TAP	42	48	6
TAP	42	96	1
TAP	42	96	3
TAP	42	144	0
TAP	42	144	7
STR	42	192	3
SI_	42	192	3	96	48	0
STR	42	192	4
SI_	42	192	4	96	48	7
BRK	42	288	3
BRK	42	288	4
STR	43	0	2
SCL	43	0	2	96	48	7
STR	43	0	6
SCL	43	0	6	96	48	3
TAP	43	96	2
TAP	43	96	6
TAP	43	192	3
TAP	43	192	7
TAP	43	240	0
TAP	43	240	4
TAP	43	288	1
TAP	43	288	5
TAP	43	336	2
STR	43	336	6
SV_	43	336	6	96	96	3
STR	44	48	3
SCR	44	48	3	96	144	2
TAP	44	96	2
TAP	44	144	1
TAP	44	192	0
TAP	45	0	3
TAP	45	48	4
TAP	45	96	6
TAP	45	96	7
TAP	45	144	6
TAP	45	144	7
TAP	45	192	4
TAP	45	240	3
TAP	45	288	0
TAP	45	288	1
TAP	45	336	0
STR	45	336	1
SUR	45	336	1	96	144	4
TAP	46	48	0
TAP	46	96	7
TAP	46	144	6
STR	46	192	5
SI_	46	192	5	96	48	0
SI_	46	192	5	96	48	1
TAP	47	0	0
HLD	47	0	1	144
TAP	47	96	3
STR	47	144	3
SCR	47	144	3	96	48	7
TAP	47	240	0
TAP	47	288	0
HLD	48	0	6	144
TAP	48	0	7
TAP	48	96	4
STR	48	144	4
SCL	48	144	4	96	48	0
TAP	48	240	7
STR	48	288	7
SLL	48	288	7	96	96	3
STR	49	0	3
SLL	49	0	3	96	96	7
STR	49	96	7
SLL	49	96	7	96	96	3
STR	49	192	3
SI_	49	192	3	96	48	7
TAP	49	288	1
STR	49	336	1
SI_	49	336	1	96	48	5
STR	50	48	6
SI_	50	48	6	96	48	2
TAP	50	144	0
STR	50	192	0
SF_	50	192	0	96	48	4
BRK	50	288	0
TAP	51	0	6
TAP	51	0	7
STR	51	48	0
SI_	51	48	0	96	48	4
TAP	51	48	5
TAP	51	144	0
TAP	51	192	7
TAP	51	240	6
TAP	51	288	5
STR	51	336	4
SI_	51	336	4	96	48	0
TAP	52	48	2
STR	52	96	2
SCL	52	96	2	96	96	5
STR	53	0	0
SI_	53	0	0	96	48	4
TAP	53	48	7
TAP	53	96	6
TAP	53	144	5
STR	53	192	4
SCR	53	192	4	96	48	7
TAP	53	240	3
TAP	53	288	2
STR	53	336	1
SI_	53	336	1	96	48	5
TAP	54	48	4
STR	54	96	4
SXR	54	96	4	96	96	0
STR	55	0	3
SI_	55	0	3	96	48	0
STR	55	96	5
SI_	55	96	5	96	48	0
STR	55	192	4
SI_	55	192	4	96	48	0
STR	55	288	0
SCR	55	288	0	96	96	4
STR	56	0	4
SCR	56	0	4	96	72	7
BRK	56	192	0
STR	57	0	1
SI_	57	0	1	96	48	4
TAP	57	0	4
TAP	57	96	1
STR	57	96	6
SI_	57	96	6	96	48	3
STR	57	192	0
SI_	57	192	0	96	48	4
TAP	57	192	6
BST	58	0	6
SI_	58	0	6	96	48	2
TAP	58	72	0
TAP	58	144	0
BST	58	192	1
SI_	58	192	1	96	48	5
TAP	58	264	7
TAP	58	336	7
STR	59	0	6
SCR	59	0	6	96	48	1
TAP	59	96	3
STR	59	144	3
SCL	59	144	3	96	48	0
TAP	59	240	5
STR	59	288	5
SCL	59	288	5	96	48	2
TAP	60	0	0
STR	60	48	0
SCR	60	48	0	96	48	3
HLD	60	192	7	48
HLD	60	240	5	48
HLD	60	288	3	48
HLD	60	336	1	48
STR	61	0	7
SI_	61	0	7	96	48	5
STR	61	48	0
SI_	61	48	0	96	48	4
STR	61	96	7
SI_	61	96	7	96	48	3
STR	61	144	0
SCR	61	144	0	96	192	7
TAP	61	192	7
TAP	61	240	0
BRK	62	96	0
BRK	62	168	1
BRK	62	168	7
BST	62	240	2
SI_	62	240	2	96	48	7
BST	62	240	6
SI_	62	240	6	96	48	3
HLD	63	96	0	96
HLD	63	96	4	96
HLD	63	240	1	96
HLD	63	240	5	96
HLD	64	0	2	288
STR	64	0	6
SCL	64	0	6	96	144	0
TAP	64	288	7
TAP	64	336	7
TAP	65	0	0
TAP	65	0	6
TAP	65	48	0
TAP	65	48	6
TAP	65	96	1
TAP	65	96	5
TAP	65	144	1
TAP	65	144	5
TAP	65	192	2
TAP	65	192	4
TAP	65	240	2
TAP	65	240	4
BRK	65	288	3
TAP	65	312	4
TAP	65	336	3
TAP	65	360	4
BRK	66	0	2
TAP	66	24	5
TAP	66	48	2
TAP	66	72	5
BRK	66	96	3
TAP	66	120	4
TAP	66	144	2
TAP	66	168	5
BRK	66	192	1
TAP	66	216	6
TAP	66	240	0
TAP	66	264	7
BRK	66	288	0
TAP	66	312	1
TAP	66	336	2
TAP	66	360	3
TAP	67	0	0
TAP	67	24	7
TAP	67	48	6
TAP	67	72	5
TAP	67	96	0
TAP	67	120	1
TAP	67	144	2
TAP	67	168	3
TAP	67	192	0
TAP	67	216	7
TAP	67	240	6
TAP	67	264	5
TAP	67	288	2
TAP	67	312	3
TAP	67	336	4
TAP	67	360	5
TAP	68	0	6
TAP	68	24	7
TAP	68	48	0
TAP	68	72	1
TAP	68	96	5
TAP	68	120	4
TAP	68	144	3
TAP	68	168	2
TAP	68	192	1
TAP	68	216	0
TAP	68	240	7
TAP	68	264	6
STR	68	288	3
SCL	68	288	3	96	48	0
TAP	69	0	7
TAP	69	48	6
STR	69	96	5
SCR	69	96	5	96	48	0
TAP	69	192	1
TAP	69	240	2
STR	69	288	3
SCL	69	288	3	96	96	7
STR	70	0	7
SSR	70	0	7	96	96	3
TAP	70	48	6
TAP	70	96	5
BRK	70	288	7
TAP	70	312	6
TAP	70	336	5
TAP	70	360	4
TAP	71	0	7
TAP	71	24	0
TAP	71	48	1
TAP	71	72	2
TAP	71	96	7
TAP	71	120	6
TAP	71	144	5
TAP	71	168	4
TAP	71	192	7
TAP	71	216	0
TAP	71	240	1
TAP	71	264	2
TAP	71	288	5
TAP	71	312	4
TAP	71	336	3
TAP	71	360	2
TAP	72	0	1
TAP	72	24	0
TAP	72	48	7
TAP	72	72	6
TAP	72	96	2
TAP	72	120	3
TAP	72	144	4
TAP	72	168	5
TAP	72	192	6
TAP	72	216	7
TAP	72	240	0
TAP	72	264	1
BRK	72	288	4
TAP	73	0	1
TAP	73	0	7
BRK	73	48	1
BRK	73	48	7
STR	73	144	3
SCL	73	144	3	96	48	0
SCR	73	144	3	96	48	6
BRK	73	240	3
STR	73	336	7
SI_	73	336	7	96	48	5
STR	74	0	0
SI_	74	0	0	96	48	4
STR	74	48	7
SI_	74	48	7	96	48	3
STR	74	96	0
SI_	74	96	0	96	48	2
TAP	74	144	7
TAP	74	192	0
STR	74	288	2
SI_	74	288	2	96	48	5
TAP	74	288	4
TAP	74	336	5
TAP	75	0	6
TAP	75	48	7
TAP	75	96	0
STR	75	96	6
SI_	75	96	6	96	48	1
TAP	75	144	1
TAP	75	192	2
TAP	75	240	3
TAP	75	288	2
STR	75	288	4
SI_	75	288	4	96	48	7
TAP	75	336	1
STR	76	0	0
SSL	76	0	0	96	96	4
TAP	76	48	0
STR	76	288	3
SF_	76	288	3	96	48	7
STR	77	96	7
SF_	77	96	7	96	48	3
STR	77	288	1
SLR	77	288	1	96	96	0
STR	77	288	5
SLR	77	288	5	96	96	4
TAP	78	144	1
TAP	78	144	5
TAP	78	192	2
TAP	78	192	6
TAP	78	288	2
STR	78	288	5
SCL	78	288	5	96	48	2
STR	79	0	1
SI_	79	0	1	96	48	4
TAP	79	0	5
TAP	79	96	1
STR	79	96	6
SI_	79	96	6	96	48	3
STR	79	192	0
SSL	79	192	0	96	96	4
TAP	79	192	6
STR	80	96	4
SF_	80	96	4	96	48	0
TAP	80	288	5
TAP	80	336	2
TAP	80	360	3
TAP	81	0	2
TAP	81	48	5
TAP	81	72	4
TAP	81	96	6
TAP	81	144	2
TAP	81	168	3
TAP	81	192	1
TAP	81	240	0
TAP	81	240	7
TAP	81	336	1
TAP	81	336	3
TAP	82	0	4
TAP	82	0	6
TAP	82	48	0
TAP	82	48	7
STR	82	96	3
SI_	82	96	3	96	48	0
STR	82	96	4
SI_	82	96	4	96	48	7
BRK	82	192	3
BRK	82	192	4
STR	82	288	0
SV_	82	288	0	96	192	3
STR	82	288	7
SV_	82	288	7	96	192	4
STR	83	288	3
SXR	83	288	3	96	192	0
STR	83	288	4
SXL	83	288	4	96	192	7
STR	84	288	0
SCR	84	288	0	96	48	2
STR	85	0	4
SCR	85	0	4	96	48	6
STR	85	96	7
SCR	85	96	7	96	48	1
STR	85	288	7
SCL	85	288	7	96	48	5
STR	86	0	3
SCL	86	0	3	96	48	1
STR	86	96	0
SCL	86	96	0	96	48	6
TAP	86	288	3
TAP	86	288	4
TAP	86	336	2
TAP	87	0	3
TAP	87	0	4
TAP	87	48	5
TAP	87	96	3
TAP	87	96	4
TAP	87	144	2
TAP	87	192	3
TAP	87	192	4
TAP	87	240	5
TAP	87	288	3
TAP	87	288	4
TAP	87	336	1
TAP	88	0	3
TAP	88	0	4
TAP	88	48	6
TAP	88	96	3
TAP	88	96	4
TAP	88	144	1
TAP	88	192	3
TAP	88	192	4
TAP	88	240	6
STR	88	288	3
SXR	88	288	3	96	48	1
TAP	88	288	4
STR	89	0	4
SXL	89	0	4	96	48	6
STR	89	96	2
SXR	89	96	2	96	48	0
TAP	89	192	5
STR	89	240	5
SLR	89	240	5	96	96	3
TAP	89	336	2
TAP	90	0	2
STR	90	96	1
SI_	90	96	1	96	48	4
SI_	90	96	1	96	48	5
BRK	90	192	1
TAP	90	288	1
TAP	90	288	6
TAP	90	336	2
TAP	90	336	5
TAP	91	0	0
TAP	91	0	7
TAP	91	96	7
TAP	91	144	6
TAP	91	192	5
STR	91	240	4
SUR	91	240	4	96	96	3
TAP	91	336	2
STR	92	0	2
SCL	92	0	2	96	96	5
STR	92	288	7
SI_	92	288	7	96	48	3
TAP	92	336	0
TAP	93	0	1
TAP	93	48	2
STR	93	96	3
SCL	93	96	3	96	48	0
TAP	93	144	4
TAP	93	192	5
TAP	93	240	6
TAP	93	336	2
TAP	93	336	5
STR	94	0	3
SI_	94	0	3	96	48	0
STR	94	0	4
SI_	94	0	4	96	48	7
TAP	94	96	3
TAP	94	96	4
STR	94	288	2
SI_	94	288	2	96	48	5
STR	95	0	6
SI_	95	0	6	96	48	1
STR	95	96	0
SI_	95	96	0	96	48	3
STR	95	192	4
SI_	95	192	4	96	48	7
STR	95	288	3
SUL	95	288	3	96	96	0
BRK	96	96	7
STR	96	288	1
SI_	96	288	1	96	48	4
TAP	96	288	4
TAP	97	0	1
STR	97	0	6
SI_	97	0	6	96	48	3
STR	97	96	0
SF_	97	96	0	96	48	4
TAP	97	96	6
BST	97	288	2
SCL	97	288	2	96	48	7
TAP	97	360	3
TAP	98	48	4
BST	98	96	5
SCR	98	96	5	96	48	0
TAP	98	168	4
TAP	98	240	3
BRK	98	288	2
TAP	98	336	1
TAP	98	336	3
TAP	99	0	0
TAP	99	0	4
BRK	99	48	5
BRK	99	48	7
BRK	99	144	4
BRK	99	144	5
TAP	99	192	3
TAP	99	192	6
BST	99	240	2
SUL	99	240	2	96	384	0
BST	99	240	7
SCL	99	240	7	96	384	1

T_REC_TAP	465
T_REC_BRK	28
T_REC_XTP	0
T_REC_HLD	21
T_REC_XHO	0
T_REC_STR	151
T_REC_BST	8
T_REC_XST	0
T_REC_TTP	0
T_REC_THO	0
T_REC_SLD	167
T_REC_ALL	840
T_NUM_TAP	616
T_NUM_BRK	36
T_NUM_HLD	21
T_NUM_SLD	167
T_NUM_ALL	840
T_JUDGE_TAP	652
T_JUDGE_HLD	76
T_JUDGE_SLD	167
T_JUDGE_ALL	895
TTM_EACHPAIRS	122
TTM_SCR_TAP	308000
TTM_SCR_BRK	93600
TTM_SCR_HLD	21000
TTM_SCR_SLD	250500
TTM_SCR_ALL	673100
TTM_SCR_S	649450
TTM_SCR_SS	669500
TTM_RAT_ACV	10053

