VERSION	0.00.00	1.03.00
FES_MODE	0
BPM_DEF	172.000	172.000	172.000	172.000
MET_DEF	4	4
RESOLUTION	384
CLK_DEF	384
COMPATIBLE_CODE	MA2

BPM	0	0	172.000
MET	0	0	4	4
MET	62	0	8	7
MET	62	336	4	3
MET	64	288	4	4

TAP	1	0	2
TAP	1	96	3
TAP	1	192	4
TAP	1	288	5
TAP	2	0	6
TAP	2	96	5
TAP	2	192	4
TAP	2	288	3
TAP	3	0	1
TAP	3	96	3
TAP	3	192	4
TAP	3	288	6
TAP	4	0	4
TAP	4	0	5
TAP	4	96	3
TAP	4	96	4
TAP	4	192	2
TAP	4	192	3
TAP	4	288	1
TAP	4	288	6
TAP	5	0	2
TAP	5	48	2
TAP	5	96	3
TAP	5	192	5
TAP	5	240	5
TAP	5	288	4
TAP	6	0	2
TAP	6	48	2
TAP	6	96	3
TAP	6	192	5
TAP	6	240	5
TAP	6	288	4
TAP	7	0	1
TAP	7	48	1
TAP	7	96	3
TAP	7	192	6
TAP	7	240	6
TAP	7	288	4
TAP	8	0	2
TAP	8	48	2
TAP	8	96	4
TAP	8	144	4
TAP	8	192	3
TAP	8	240	3
TAP	8	288	5
TAP	9	0	6
TAP	9	48	6
TAP	9	96	4
TAP	9	192	1
TAP	9	240	1
TAP	9	288	3
TAP	10	0	6
TAP	10	48	6
TAP	10	96	3
TAP	10	144	3
TAP	10	192	4
TAP	10	240	4
TAP	10	288	1
STR	11	0	5
SI_	11	0	5	96	48	1
STR	11	192	2
SI_	11	192	2	96	48	6
TAP	12	0	0
TAP	12	0	7
TAP	12	96	1
TAP	12	96	6
TAP	12	192	2
TAP	12	192	5
BRK	12	288	0
BRK	12	288	7
HLD	13	0	1	96
TAP	13	96	2
HLD	13	144	2	96
TAP	13	240	3
TAP	13	288	3
HLD	14	0	6	96
TAP	14	96	5
HLD	14	144	5	96
TAP	14	240	4
TAP	14	288	4
TAP	15	0	2
TAP	15	0	6
TAP	15	96	0
TAP	15	96	4
TAP	15	192	2
TAP	15	192	7
TAP	15	288	5
TAP	15	336	4
TAP	16	0	5
TAP	16	96	2
TAP	16	96	3
TAP	16	192	0
TAP	16	192	6
TAP	16	288	2
TAP	16	336	3
TAP	17	0	2
TAP	17	96	5
TAP	17	144	4
TAP	17	192	5
TAP	17	288	1
TAP	17	336	3
TAP	18	0	2
TAP	18	96	6
TAP	18	144	4
TAP	18	192	5
TAP	18	288	0
TAP	18	288	7
TAP	19	0	2
TAP	19	0	3
TAP	19	96	6
TAP	19	192	4
TAP	19	192	5
TAP	19	288	1
TAP	20	0	2
TAP	20	0	3
STR	20	96	4
SI_	20	96	4	96	48	0
TAP	20	96	5
BRK	20	288	7
TAP	21	0	1
TAP	21	0	5
TAP	21	96	6
TAP	21	144	4
HLD	21	192	5	96
TAP	21	288	7
TAP	22	0	2
TAP	22	0	6
TAP	22	96	1
TAP	22	144	3
HLD	22	192	2	96
TAP	22	288	0
TAP	23	0	1
TAP	23	0	5
TAP	23	96	3
TAP	23	96	7
TAP	23	192	0
TAP	23	192	5
TAP	23	288	2
TAP	23	336	3
TAP	24	0	2
TAP	24	96	4
TAP	24	96	5
TAP	24	192	1
TAP	24	192	7
TAP	24	288	5
TAP	24	336	4
TAP	25	0	6
TAP	25	96	2
TAP	25	144	3
TAP	25	192	1
TAP	25	288	7
TAP	25	336	0
STR	26	0	7
SI_	26	0	7	96	48	3
HLD	26	192	2	96
STR	26	288	3
SCR	26	288	3	96	288	2
TAP	26	336	3
TAP	28	0	2
TAP	28	0	3
TAP	28	96	4
TAP	28	96	5
TAP	28	192	1
TAP	28	192	3
TAP	28	288	4
TAP	28	288	6
TAP	29	0	0
TAP	29	0	7
TAP	29	96	2
TAP	29	144	3
TAP	29	192	1
TAP	29	192	4
TAP	29	288	5
TAP	29	336	4
TAP	30	0	3
TAP	30	0	6
TAP	30	96	1
TAP	30	96	4
TAP	30	192	2
TAP	30	192	6
TAP	30	288	0
TAP	30	288	4
HLD	31	0	1	96
TAP	31	96	0
HLD	31	192	6	96
TAP	31	288	5
HLD	32	0	2	96
HLD	32	96	3	96
TAP	32	192	4
TAP	32	288	0
TAP	32	288	5
STR	33	0	6
SCL	33	0	6	96	48	3
STR	33	192	1
SUR	33	192	1	96	48	5
STR	34	0	7
SUL	34	0	7	96	48	3
TAP	34	96	0
TAP	34	144	0
TAP	34	288	1
TAP	34	288	6
TAP	35	0	2
TAP	35	96	3
TAP	35	192	2
TAP	35	288	1
TAP	35	288	4
TAP	36	0	5
TAP	36	96	4
TAP	36	192	5
TAP	36	288	3
TAP	36	288	6
TAP	37	0	1
TAP	37	96	0
TAP	37	192	1
TAP	37	288	2
TAP	37	288	7
TAP	38	0	6
TAP	38	96	7
TAP	38	192	6
TAP	38	288	0
TAP	38	288	5
TAP	39	0	2
TAP	39	0	7
TAP	39	96	6
TAP	39	192	1
TAP	39	288	5
HLD	40	0	2	192
HLD	40	192	4	96
STR	40	288	3
SUR	40	288	3	96	192	4
TAP	40	336	3
TAP	41	336	3
TAP	41	336	4
TAP	42	48	0
TAP	42	48	7
STR	42	96	0
SCR	42	96	0	96	48	2
STR	42	96	7
SCL	42	96	7	96	48	5
BRK	42	288	0
BRK	42	288	7
STR	43	0	1
SI_	43	0	1	96	48	4
TAP	43	192	5
TAP	43	240	4
TAP	43	288	5
TAP	43	336	3
TAP	43	336	6
TAP	44	48	4
STR	44	96	4
SI_	44	96	4	96	48	1
SI_	44	96	4	96	48	7
TAP	44	288	0
STR	45	0	6
SI_	45	0	6	96	48	3
TAP	45	192	2
TAP	45	240	3
TAP	45	288	2
TAP	45	336	1
TAP	45	336	4
TAP	46	48	3
STR	46	96	3
SI_	46	96	3	96	48	0
SI_	46	96	3	96	48	6
TAP	46	288	7
HLD	47	0	5	96
TAP	47	96	4
TAP	47	144	5
TAP	47	240	3
TAP	47	240	6
TAP	47	288	3
TAP	47	288	6
HLD	48	0	2	96
TAP	48	96	3
TAP	48	144	2
TAP	48	240	1
TAP	48	240	4
TAP	48	288	1
TAP	48	288	4
TAP	49	0	2
TAP	49	0	3
TAP	49	96	0
TAP	49	96	7
TAP	49	192	4
TAP	49	192	5
TAP	49	288	0
TAP	49	288	7
TAP	49	336	0
TAP	49	336	7
TAP	50	48	1
TAP	50	48	6
STR	50	96	1
SCR	50	96	1	96	48	3
STR	50	96	6
SCL	50	96	6	96	48	4
BRK	50	288	0
BRK	50	288	7
STR	51	0	1
SI_	51	0	1	96	48	5
TAP	51	48	1
TAP	51	192	6
TAP	51	240	7
TAP	51	288	6
TAP	51	336	0
TAP	51	336	5
TAP	52	48	4
STR	52	96	4
SI_	52	96	4	96	48	1
SI_	52	96	4	96	48	7
TAP	52	288	0
STR	53	0	6
SI_	53	0	6	96	48	2
TAP	53	48	6
TAP	53	192	1
TAP	53	240	0
TAP	53	288	1
TAP	53	336	2
TAP	53	336	7
TAP	54	48	3
STR	54	96	3
SI_	54	96	3	96	48	0
SI_	54	96	3	96	48	6
TAP	54	288	7
HLD	55	0	2	96
TAP	55	96	3
TAP	55	144	2
HLD	55	192	6	96
TAP	55	288	5
TAP	55	336	6
HLD	56	0	0	96
TAP	56	96	7
TAP	56	144	0
STR	56	192	7
SI_	56	192	7	96	48	3
TAP	56	288	0
TAP	57	0	1
TAP	57	0	2
TAP	57	96	3
TAP	57	96	4
TAP	57	192	5
TAP	57	192	6
TAP	57	288	0
TAP	57	288	7
HLD	58	0	1	72
HLD	58	72	2	72
TAP	58	144	3
HLD	58	192	6	72
HLD	58	264	5	72
TAP	58	336	4
STR	59	0	4
SCR	59	0	4	96	576	3
TAP	61	0	3
TAP	61	96	2
TAP	61	96	3
TAP	61	192	4
TAP	61	288	4
TAP	61	288	5
STR	62	0	6
SUL	62	0	6	96	144	1
HLD	62	336	2	144
HLD	63	96	3	144
HLD	63	240	4	144
HLD	64	0	5	144
TAP	64	144	4
TAP	64	240	3
TAP	64	240	4
TAP	64	288	3
TAP	64	288	4
TAP	65	0	1
TAP	65	96	3
TAP	65	96	4
TAP	65	192	6
TAP	65	288	2
TAP	65	288	5
TAP	66	0	1
TAP	66	0	6
TAP	66	96	0
TAP	66	144	0
TAP	66	192	7
TAP	66	240	7
STR	66	288	0
SI_	66	288	0	96	48	4
TAP	67	0	5
TAP	67	96	6
TAP	67	144	6
TAP	67	192	4
STR	67	288	7
SI_	67	288	7	96	48	3
TAP	68	0	2
TAP	68	96	1
TAP	68	144	1
TAP	68	192	3
HLD	68	288	2	96
TAP	69	0	3
TAP	69	48	2
HLD	69	96	6	96
TAP	69	192	5
TAP	69	240	6
HLD	69	288	0	96
TAP	70	0	7
TAP	70	48	0
STR	70	96	7
SCL	70	96	7	96	48	4
TAP	70	288	3
TAP	70	336	3
TAP	71	0	5
TAP	71	48	5
TAP	71	96	1
TAP	71	144	1
TAP	71	192	3
TAP	71	288	4
TAP	71	336	4
TAP	72	0	2
TAP	72	48	2
TAP	72	96	6
TAP	72	144	6
TAP	72	192	4
HLD	72	288	2	96
HLD	72	288	3	96
TAP	73	48	2
TAP	73	48	3
STR	73	144	4
SCL	73	144	4	96	72	1
STR	73	144	5
SCR	73	144	5	96	72	0
TAP	74	0	2
TAP	74	48	2
TAP	74	96	3
TAP	74	144	3
TAP	74	192	4
TAP	74	192	5
HLD	74	288	6	96
TAP	75	0	7
HLD	75	96	1	96
TAP	75	192	2
HLD	75	288	5	96
HLD	76	0	4	96
TAP	76	96	3
TAP	76	192	2
TAP	76	192	7
STR	76	288	1
SCR	76	288	1	96	48	4
STR	77	96	6
SUL	77	96	6	96	48	2
STR	77	288	0
SUR	77	288	0	96	48	4
TAP	78	0	7
TAP	78	48	7
TAP	78	192	1
TAP	78	192	6
TAP	78	288	0
TAP	78	288	7
TAP	79	0	1
TAP	79	96	6
TAP	79	192	2
HLD	79	288	5	192
HLD	80	96	3	96
STR	80	192	4
SUL	80	192	4	96	192	3
TAP	80	240	4
TAP	81	240	1
TAP	81	240	6
TAP	81	336	3
TAP	81	336	4
STR	82	0	3
SI_	82	0	3	96	48	1
STR	82	0	4
SI_	82	0	4	96	48	6
BRK	82	192	0
BRK	82	192	7
TAP	82	288	1
TAP	83	0	2
TAP	83	96	3
TAP	83	192	4
TAP	83	240	4
TAP	83	336	3
TAP	84	0	3
TAP	84	96	2
TAP	84	96	5
TAP	84	288	6
TAP	85	0	5
TAP	85	96	4
TAP	85	192	3
TAP	85	240	3
TAP	85	336	4
TAP	86	0	4
TAP	86	96	2
TAP	86	96	5
HLD	86	288	2	96
TAP	87	0	3
TAP	87	48	2
TAP	87	144	1
TAP	87	144	4
TAP	87	192	1
TAP	87	192	4
HLD	87	288	5	96
TAP	88	0	4
TAP	88	48	5
TAP	88	144	3
TAP	88	144	6
TAP	88	192	3
TAP	88	192	6
TAP	88	288	0
TAP	88	288	1
TAP	89	0	3
TAP	89	0	4
TAP	89	96	6
TAP	89	96	7
TAP	89	192	3
TAP	89	192	4
TAP	89	240	3
TAP	89	240	4
TAP	89	336	0
TAP	89	336	7
STR	90	0	0
SCR	90	0	0	96	48	3
STR	90	0	7
SCL	90	0	7	96	48	4
BRK	90	192	0
BRK	90	192	7
STR	90	288	6
SI_	90	288	6	96	48	3
STR	90	288	7
SI_	90	288	7	96	48	2
TAP	90	336	6
TAP	90	336	7
TAP	91	96	1
TAP	91	144	4
TAP	91	192	3
TAP	91	240	6
TAP	91	336	2
TAP	91	336	3
STR	92	0	2
SI_	92	0	2	96	48	7
STR	92	0	3
SI_	92	0	3	96	48	6
TAP	92	192	0
TAP	92	192	5
STR	92	288	0
SI_	92	288	0	96	48	5
STR	92	288	1
SI_	92	288	1	96	48	4
TAP	92	336	0
TAP	92	336	1
TAP	93	96	6
TAP	93	144	3
TAP	93	192	4
TAP	93	240	1
TAP	93	336	4
TAP	93	336	5
STR	94	0	4
SI_	94	0	4	96	48	1
STR	94	0	5
SI_	94	0	5	96	48	0
TAP	94	192	2
TAP	94	192	7
HLD	94	288	5	96
TAP	95	0	4
TAP	95	48	5
HLD	95	96	1	96
TAP	95	192	2
TAP	95	240	1
HLD	95	288	7	96
TAP	96	0	0
TAP	96	48	7
STR	96	96	0
SI_	96	96	0	96	48	4
TAP	96	192	7
TAP	96	288	5
TAP	96	288	6
TAP	97	0	3
TAP	97	0	4
TAP	97	96	1
TAP	97	96	2
TAP	97	192	0
TAP	97	192	7
HLD	97	288	6	72
HLD	97	360	5	72
TAP	98	48	4
HLD	98	96	1	72
HLD	98	168	2	72
TAP	98	240	3
TAP	98	288	3
TAP	98	336	4
TAP	99	0	3
TAP	99	48	2
TAP	99	48	5
TAP	99	144	0
TAP	99	144	7
TAP	99	192	0
TAP	99	192	7
STR	99	240	0
SXL	99	240	0	96	432	3
STR	99	240	7
SXR	99	240	7	96	432	4

T_REC_TAP	438
T_REC_BRK	11
T_REC_XTP	0
T_REC_HLD	46
T_REC_XHO	0
T_REC_STR	48
T_REC_BST	0
T_REC_XST	0
T_REC_TTP	0
T_REC_THO	0
T_REC_SLD	52
T_REC_ALL	595
T_NUM_TAP	486
T_NUM_BRK	11
T_NUM_HLD	46
T_NUM_SLD	52
T_NUM_ALL	595
T_JUDGE_TAP	497
T_JUDGE_HLD	100
T_JUDGE_SLD	52
T_JUDGE_ALL	649
TTM_EACHPAIRS	116
TTM_SCR_TAP	243000
TTM_SCR_BRK	28600
TTM_SCR_HLD	46000
TTM_SCR_SLD	78000
TTM_SCR_ALL	395600
TTM_SCR_S	382700
TTM_SCR_SS	394500
TTM_RAT_ACV	10027

