VERSION	0.00.00	1.03.00
FES_MODE	0
BPM_DEF	172.000	172.000	172.000	172.000
MET_DEF	4	4
RESOLUTION	384
CLK_DEF	384
COMPATIBLE_CODE	MA2

BPM	0	0	172.000
MET	0	0	4	4

TAP	1	0	3
TAP	1	96	2
TAP	1	192	2
TAP	1	192	3
TAP	2	0	4
TAP	2	96	5
TAP	2	192	4
TAP	2	192	5
TAP	3	0	2
TAP	3	96	3
TAP	3	192	5
TAP	3	288	4
TAP	4	0	3
TAP	4	96	4
TAP	4	192	2
TAP	4	192	5
TAP	5	0	4
TAP	5	96	5
TAP	5	192	4
TAP	5	192	5
TAP	6	0	3
TAP	6	96	2
TAP	6	192	2
TAP	6	192	3
TAP	7	0	5
TAP	7	96	4
TAP	7	192	2
TAP	7	288	3
TAP	8	0	4
TAP	8	96	3
TAP	8	192	2
TAP	8	192	5
TAP	9	0	2
TAP	9	96	2
TAP	9	192	1
TAP	9	192	3
TAP	10	0	5
TAP	10	96	5
TAP	10	192	4
TAP	10	192	6
TAP	11	0	3
TAP	11	96	4
TAP	11	192	3
TAP	11	192	4
STR	11	288	3
SXR	11	288	3	96	192	1
STR	11	288	4
SXL	11	288	4	96	192	6
TAP	13	0	0
TAP	13	96	1
TAP	13	192	2
TAP	13	192	3
TAP	14	0	7
TAP	14	96	6
TAP	14	192	4
TAP	14	192	5
TAP	15	0	3
TAP	15	96	3
TAP	15	192	4
TAP	15	288	4
TAP	16	0	3
TAP	16	96	4
TAP	16	192	2
TAP	16	192	5
TAP	17	0	7
TAP	17	96	6
TAP	17	192	4
TAP	17	192	5
TAP	18	0	0
TAP	18	96	1
TAP	18	192	2
TAP	18	192	3
TAP	19	0	4
TAP	19	96	4
TAP	19	192	3
TAP	19	288	3
TAP	20	0	4
TAP	20	96	3
TAP	20	192	2
TAP	20	192	5
TAP	21	0	3
TAP	21	96	2
TAP	21	192	0
TAP	21	192	1
TAP	22	0	4
TAP	22	96	5
TAP	22	192	6
TAP	22	192	7
TAP	23	0	0
TAP	23	96	0
TAP	23	192	7
TAP	23	288	7
TAP	24	0	0
TAP	24	96	7
TAP	24	192	1
TAP	24	192	6
TAP	25	0	4
TAP	25	96	5
TAP	25	192	6
TAP	25	192	7
TAP	26	0	3
TAP	26	96	2
TAP	26	192	0
TAP	26	192	1
TAP	27	0	7
TAP	27	96	7
TAP	27	192	0
TAP	27	288	0
TAP	28	0	7
TAP	28	96	0
TAP	28	192	1
TAP	28	192	6
TAP	29	0	4
TAP	29	96	4
TAP	29	192	3
TAP	29	288	3
TAP	30	0	4
TAP	30	96	3
BRK	30	192	2
BRK	30	192	5
HLD	31	0	5	192
TAP	31	192	4
HLD	32	0	2	192
TAP	32	192	3
HLD	33	0	6	192
TAP	33	192	5
HLD	34	0	1	192
TAP	34	192	2
HLD	35	0	6	192
TAP	35	192	7
HLD	36	0	1	192
TAP	36	192	0
HLD	37	0	5	192
TAP	37	192	6
HLD	38	0	2	192
TAP	38	192	1
TAP	39	0	2
TAP	39	0	3
STR	39	96	2
SCL	39	96	2	96	192	7
STR	39	96	3
SUL	39	96	3	96	192	6
TAP	40	192	0
TAP	40	192	5
TAP	41	0	4
TAP	41	0	5
STR	41	96	4
SUR	41	96	4	96	192	1
STR	41	96	5
SCR	41	96	5	96	192	0
TAP	42	192	2
TAP	42	192	7
TAP	43	0	2
TAP	43	96	2
TAP	43	96	3
TAP	43	192	5
TAP	43	288	4
TAP	43	288	5
TAP	44	0	2
TAP	44	96	1
TAP	44	96	3
TAP	44	192	1
TAP	44	192	3
TAP	45	0	5
TAP	45	96	4
TAP	45	96	5
TAP	45	192	2
TAP	45	288	2
TAP	45	288	3
TAP	46	0	5
TAP	46	96	4
TAP	46	96	6
TAP	46	192	4
TAP	46	192	6
TAP	47	0	1
TAP	47	96	0
TAP	47	192	1
TAP	47	288	2
TAP	47	288	7
TAP	48	0	6
TAP	48	96	7
TAP	48	192	6
TAP	48	288	0
TAP	48	288	5
TAP	49	0	0
TAP	49	96	7
TAP	49	192	1
TAP	49	288	6
TAP	50	0	0
TAP	50	0	7
TAP	50	96	0
TAP	50	96	7
BRK	50	192	2
BRK	50	192	5
TAP	51	0	1
TAP	51	96	0
TAP	51	96	1
TAP	51	192	6
TAP	51	288	6
TAP	51	288	7
TAP	52	0	1
TAP	52	96	0
TAP	52	96	2
TAP	52	192	0
TAP	52	192	2
TAP	53	0	6
TAP	53	96	6
TAP	53	96	7
TAP	53	192	1
TAP	53	288	0
TAP	53	288	1
TAP	54	0	6
TAP	54	96	5
TAP	54	96	7
TAP	54	192	5
TAP	54	192	7
TAP	55	0	0
TAP	55	96	1
TAP	55	192	2
TAP	55	288	3
TAP	56	0	4
TAP	56	0	5
TAP	56	96	6
TAP	56	96	7
TAP	56	192	0
TAP	56	192	5
TAP	57	0	3
TAP	57	96	4
TAP	57	192	2
TAP	57	288	5
TAP	58	0	3
TAP	58	0	4
TAP	58	96	3
TAP	58	96	4
STR	58	192	1
SCR	58	192	1	96	480	7
STR	60	192	7
SSR	60	192	7	96	288	3
STR	62	0	3
SCL	62	0	3	96	480	4
STR	64	0	4
SI_	64	0	4	96	192	0
STR	65	96	0
SSL	65	96	0	96	288	4
TAP	66	288	2
TAP	67	0	3
TAP	67	96	2
TAP	67	192	1
TAP	67	192	4
TAP	67	288	4
TAP	68	0	5
TAP	68	96	3
TAP	68	96	6
TAP	68	288	5
TAP	69	0	4
TAP	69	96	5
TAP	69	192	3
TAP	69	192	6
TAP	69	288	3
TAP	70	0	2
TAP	70	96	1
TAP	70	96	4
TAP	70	288	1
TAP	71	0	0
TAP	71	96	1
TAP	71	192	2
TAP	71	192	7
TAP	71	288	7
TAP	72	0	6
TAP	72	96	0
TAP	72	96	5
TAP	72	288	6
TAP	73	0	7
TAP	73	96	6
TAP	73	192	0
TAP	73	192	5
TAP	73	288	0
TAP	74	0	1
TAP	74	96	2
TAP	74	96	7
TAP	74	288	5
TAP	75	0	4
TAP	75	0	5
TAP	75	96	6
TAP	75	192	6
TAP	75	192	7
TAP	75	288	1
TAP	76	0	0
TAP	76	0	1
TAP	76	96	2
TAP	76	96	7
TAP	76	288	2
TAP	77	0	2
TAP	77	0	3
TAP	77	96	1
TAP	77	192	0
TAP	77	192	1
TAP	77	288	6
TAP	78	0	6
TAP	78	0	7
TAP	78	96	0
TAP	78	96	5
TAP	78	288	6
TAP	79	0	6
TAP	79	0	7
TAP	79	96	5
TAP	79	192	4
TAP	79	192	5
TAP	79	288	2
TAP	80	0	2
TAP	80	0	3
TAP	80	96	1
TAP	80	96	4
TAP	80	288	1
TAP	81	0	0
TAP	81	0	1
TAP	81	96	2
TAP	81	192	2
TAP	81	192	3
TAP	81	288	5
TAP	82	0	4
TAP	82	0	5
BRK	82	96	3
BRK	82	96	6
HLD	82	288	5	192
TAP	83	96	4
HLD	83	288	2	192
TAP	84	96	3
HLD	84	288	6	192
TAP	85	96	5
HLD	85	288	1	192
TAP	86	96	2
TAP	86	288	2
TAP	87	0	2
TAP	87	0	3
TAP	87	96	1
TAP	87	96	4
TAP	87	288	5
TAP	88	0	4
TAP	88	0	5
TAP	88	96	3
TAP	88	96	6
TAP	88	288	3
TAP	88	288	5
TAP	89	0	2
TAP	89	0	6
TAP	89	96	1
TAP	89	96	7
STR	89	192	0
SI_	89	192	0	96	96	4
TAP	90	96	2
TAP	90	96	6
TAP	90	288	2
TAP	91	0	1
TAP	91	0	3
TAP	91	96	5
TAP	91	192	4
TAP	91	192	6
TAP	91	288	3
TAP	92	0	4
TAP	92	96	1
TAP	92	96	6
TAP	92	288	1
TAP	93	0	0
TAP	93	0	2
TAP	93	96	6
TAP	93	192	5
TAP	93	192	7
TAP	93	288	0
TAP	94	0	7
TAP	94	96	2
TAP	94	96	5
TAP	94	288	1
TAP	95	0	2
TAP	95	96	3
TAP	95	192	4
TAP	95	288	5
TAP	96	0	6
TAP	96	96	2
TAP	96	96	7
TAP	96	288	6
TAP	97	0	5
TAP	97	96	4
TAP	97	192	3
TAP	97	288	2
TAP	98	0	1
TAP	98	96	0
TAP	98	96	7
TAP	98	192	1
TAP	98	192	6
TAP	98	288	2
TAP	99	0	3
TAP	99	96	4
STR	99	192	5
SUL	99	192	5	96	480	2

T_REC_TAP	351
T_REC_BRK	6
T_REC_XTP	0
T_REC_HLD	12
T_REC_XHO	0
T_REC_STR	13
T_REC_BST	0
T_REC_XST	0
T_REC_TTP	0
T_REC_THO	0
T_REC_SLD	13
T_REC_ALL	395
T_NUM_TAP	364
T_NUM_BRK	6
T_NUM_HLD	12
T_NUM_SLD	13
T_NUM_ALL	395
T_JUDGE_TAP	370
T_JUDGE_HLD	48
T_JUDGE_SLD	13
T_JUDGE_ALL	431
TTM_EACHPAIRS	96
TTM_SCR_TAP	182000
TTM_SCR_BRK	15600
TTM_SCR_HLD	12000
TTM_SCR_SLD	19500
TTM_SCR_ALL	229100
TTM_SCR_S	221650
TTM_SCR_SS	228500
TTM_RAT_ACV	10026

