VERSION	0.00.00	1.03.00
FES_MODE	0
BPM_DEF	172.000	172.000	172.000	172.000
MET_DEF	4	4
RESOLUTION	384
CLK_DEF	384
COMPATIBLE_CODE	MA2

BPM	0	0	172.000
MET	0	0	4	4
MET	62	0	4	3
MET	62	288	4	4

TAP	5	0	3
TAP	5	96	3
TAP	5	192	3
TAP	6	0	2
TAP	6	96	2
TAP	6	192	2
TAP	7	0	1
TAP	7	96	1
TAP	7	192	1
HLD	8	0	0	192
STR	9	0	7
SI_	9	0	7	96	288	3
STR	11	0	0
SI_	11	0	0	96	288	4
TAP	13	0	5
TAP	13	192	5
TAP	14	0	5
TAP	14	192	5
TAP	15	0	4
TAP	15	192	4
TAP	16	0	4
TAP	16	192	4
TAP	17	0	3
TAP	17	192	3
TAP	18	0	3
TAP	18	192	3
TAP	19	0	2
TAP	19	192	2
TAP	20	0	2
TAP	20	0	3
BRK	20	192	2
BRK	20	192	3
TAP	21	0	1
TAP	21	96	1
TAP	21	192	1
TAP	22	0	1
TAP	22	96	1
TAP	22	192	1
TAP	23	0	0
TAP	23	96	0
TAP	23	192	0
TAP	24	0	0
TAP	24	96	0
TAP	24	192	0
TAP	25	0	7
TAP	25	96	7
TAP	25	192	7
TAP	26	0	7
TAP	26	96	7
TAP	26	192	7
HLD	27	0	6	384
HLD	27	0	7	384
HLD	29	0	0	384
HLD	29	0	1	384
TAP	31	0	0
TAP	31	96	0
TAP	31	192	0
TAP	32	0	1
TAP	32	96	1
TAP	32	192	1
STR	33	0	1
SI_	33	0	1	96	288	5
TAP	35	0	7
TAP	35	192	7
TAP	36	0	6
TAP	36	96	6
TAP	36	192	6
TAP	37	0	5
TAP	37	192	5
TAP	38	0	4
TAP	38	96	4
TAP	38	192	4
HLD	39	0	3	384
HLD	39	0	4	384
TAP	40	192	3
TAP	40	192	4
TAP	41	0	3
TAP	41	192	3
TAP	42	0	4
TAP	42	96	4
BRK	42	192	4
TAP	43	0	5
TAP	43	96	5
TAP	43	192	5
TAP	44	0	6
TAP	44	96	6
TAP	44	192	6
TAP	44	192	7
TAP	45	0	7
TAP	45	96	7
TAP	45	192	7
TAP	46	0	0
TAP	46	96	7
TAP	46	192	0
TAP	47	0	1
TAP	47	192	1
TAP	48	0	2
TAP	48	192	2
TAP	49	0	3
TAP	49	96	3
TAP	49	192	3
TAP	50	0	4
TAP	50	96	3
BRK	50	192	3
BRK	50	192	4
TAP	51	0	2
TAP	51	96	2
TAP	51	192	2
TAP	52	0	1
TAP	52	96	1
TAP	52	192	0
TAP	52	192	1
TAP	53	0	0
TAP	53	96	0
TAP	53	192	0
TAP	54	0	7
TAP	54	96	0
TAP	54	192	7
TAP	55	0	6
TAP	55	192	6
TAP	56	0	5
TAP	56	192	5
TAP	57	0	4
TAP	57	96	4
TAP	57	192	3
TAP	57	288	3
TAP	58	0	4
TAP	58	96	3
TAP	58	192	4
BRK	59	0	3
BRK	59	0	4
TAP	60	0	3
TAP	60	0	4
TAP	61	0	3
HLD	61	192	4	288
TAP	62	288	3
TAP	63	96	3
TAP	63	288	2
TAP	64	96	2
TAP	64	288	1
TAP	65	0	1
TAP	65	96	1
TAP	65	288	0
TAP	66	0	0
TAP	66	96	0
TAP	66	288	7
TAP	67	0	7
TAP	67	96	0
TAP	67	192	0
TAP	67	288	7
TAP	68	0	0
TAP	68	96	7
HLD	68	288	6	192
HLD	69	288	5	192
TAP	70	288	4
TAP	71	0	4
TAP	71	96	3
TAP	71	192	3
TAP	71	288	4
TAP	72	0	3
TAP	72	96	4
HLD	72	288	2	384
HLD	72	288	5	384
TAP	74	96	3
TAP	74	96	4
TAP	74	288	4
TAP	75	96	4
TAP	75	288	5
TAP	76	0	5
TAP	76	96	5
STR	76	288	6
SI_	76	288	6	96	288	2
TAP	78	288	0
TAP	79	96	0
TAP	79	288	1
TAP	80	96	1
TAP	80	288	2
TAP	81	0	2
TAP	81	96	2
TAP	81	288	3
TAP	82	0	4
BRK	82	96	3
BRK	82	96	4
TAP	82	288	4
TAP	83	96	4
TAP	83	288	5
TAP	84	96	5
TAP	84	288	6
TAP	85	96	6
TAP	85	288	7
TAP	86	96	7
STR	86	288	0
SI_	86	288	0	96	288	4
STR	88	288	7
SI_	88	288	7	96	288	3
TAP	90	288	0
TAP	91	0	0
TAP	91	96	0
TAP	91	288	1
TAP	92	0	1
TAP	92	96	0
TAP	92	96	1
TAP	92	288	2
TAP	93	0	2
TAP	93	96	2
TAP	93	288	3
TAP	94	0	4
TAP	94	96	3
TAP	94	288	4
TAP	95	0	4
TAP	95	96	4
TAP	95	192	4
TAP	95	288	5
TAP	96	0	5
TAP	96	96	4
TAP	96	96	5
TAP	96	288	3
TAP	97	0	3
TAP	97	96	3
TAP	97	192	3
TAP	97	288	2
TAP	98	0	2
TAP	98	96	2
TAP	98	96	3
STR	98	288	3
SI_	98	288	3	96	288	0
STR	98	288	4
SI_	98	288	4	96	288	7

T_REC_TAP	191
T_REC_BRK	9
T_REC_XTP	0
T_REC_HLD	12
T_REC_XHO	0
T_REC_STR	8
T_REC_BST	0
T_REC_XST	0
T_REC_TTP	0
T_REC_THO	0
T_REC_SLD	8
T_REC_ALL	228
T_NUM_TAP	199
T_NUM_BRK	9
T_NUM_HLD	12
T_NUM_SLD	8
T_NUM_ALL	228
T_JUDGE_TAP	208
T_JUDGE_HLD	82
T_JUDGE_SLD	8
T_JUDGE_ALL	298
TTM_EACHPAIRS	18
TTM_SCR_TAP	99500
TTM_SCR_BRK	23400
TTM_SCR_HLD	12000
TTM_SCR_SLD	12000
TTM_SCR_ALL	146900
TTM_SCR_S	141650
TTM_SCR_SS	146000
TTM_RAT_ACV	10061

