VERSION	0.00.00	1.03.00
FES_MODE	0
BPM_DEF	128.000	128.000	128.000	128.000
MET_DEF	4	4
RESOLUTION	384
CLK_DEF	384
COMPATIBLE_CODE	MA2

BPM	0	0	128.000
MET	0	0	4	4

TAP	1	0	3
TAP	1	0	4
HLD	1	96	2	288
TAP	1	144	3
TAP	1	192	4
TAP	1	240	5
STR	1	288	6
SUL	1	288	6	96	96	1
TAP	1	336	6
HLD	2	96	3	288
TAP	2	144	0
TAP	2	192	7
TAP	2	240	6
STR	2	288	5
SUR	2	288	5	96	96	2
TAP	2	336	5
HLD	3	96	1	288
TAP	3	144	3
TAP	3	192	4
TAP	3	240	5
TAP	3	288	6
TAP	3	336	7
STR	4	0	0
SCL	4	0	0	96	144	2
TAP	4	96	1
TAP	4	144	2
TAP	4	192	1
TAP	4	240	0
TAP	4	288	7
TAP	4	336	6
TAP	5	0	0
TAP	5	0	7
HLD	5	96	5	288
TAP	5	144	4
TAP	5	192	3
TAP	5	240	2
STR	5	288	1
SUR	5	288	1	96	96	6
TAP	5	336	1
HLD	6	96	4	288
TAP	6	144	7
TAP	6	192	0
TAP	6	240	1
STR	6	288	2
SUL	6	288	2	96	96	5
TAP	6	336	2
TAP	7	96	4
TAP	7	144	3
TAP	7	192	2
STR	7	240	1
SXL	7	240	1	96	240	0
STR	7	240	6
SXR	7	240	6	96	240	7
TAP	7	336	1
TAP	7	336	6
BRK	8	288	1
BRK	8	288	6
STR	9	0	0
SUR	9	0	0	96	48	5
STR	9	0	1
SCR	9	0	1	96	48	4
TAP	9	96	0
TAP	9	96	1
TAP	9	192	6
TAP	9	192	7
TAP	9	264	3
TAP	9	264	4
TAP	9	336	0
TAP	9	336	1
STR	10	0	1
SCR	10	0	1	96	96	6
STR	10	96	6
SCL	10	96	6	96	96	0
TAP	10	192	0
TAP	10	288	7
STR	11	0	6
SCL	11	0	6	96	48	3
STR	11	0	7
SUL	11	0	7	96	48	2
TAP	11	96	6
TAP	11	96	7
TAP	11	192	0
TAP	11	192	1
TAP	11	264	3
TAP	11	264	4
TAP	11	336	6
TAP	11	336	7
STR	12	0	6
SCL	12	0	6	96	96	1
STR	12	96	1
SCR	12	96	1	96	96	7
TAP	12	192	7
TAP	12	288	0
TAP	13	0	1
TAP	13	48	2
TAP	13	96	3
TAP	13	144	4
TAP	13	192	5
TAP	13	240	6
TAP	13	288	0
TAP	13	288	7
TAP	13	336	0
TAP	13	336	7
TAP	14	0	6
TAP	14	48	5
TAP	14	96	4
TAP	14	144	3
TAP	14	192	2
TAP	14	240	1
TAP	14	288	0
TAP	14	288	7
TAP	14	336	0
TAP	14	336	7
TAP	15	0	0
TAP	15	24	7
TAP	15	48	0
TAP	15	72	7
TAP	15	96	1
TAP	15	120	6
TAP	15	144	1
TAP	15	168	6
TAP	15	192	2
TAP	15	216	5
TAP	15	240	2
TAP	15	264	5
TAP	15	288	3
TAP	15	312	4
TAP	15	336	3
TAP	15	360	4
STR	16	0	3
SUR	16	0	3	96	96	4
STR	16	96	4
SCR	16	96	4	96	96	3
TAP	16	192	0
BRK	16	288	7
STR	17	0	2
SUR	17	0	2	96	48	7
STR	17	0	6
SCL	17	0	6	96	48	3
TAP	17	192	0
TAP	17	264	1
TAP	17	264	7
TAP	17	336	2
TAP	17	336	6
TAP	18	0	3
TAP	18	0	5
TAP	18	48	2
TAP	18	48	4
TAP	18	96	3
TAP	18	120	4
TAP	18	144	3
TAP	18	168	4
STR	18	192	1
SI_	18	192	1	96	48	4
SI_	18	192	1	96	48	5
TAP	18	240	0
TAP	18	288	1
STR	19	0	1
SCR	19	0	1	96	48	4
STR	19	0	5
SUL	19	0	5	96	48	0
TAP	19	192	7
TAP	19	264	0
TAP	19	264	6
TAP	19	336	1
TAP	19	336	5
TAP	20	0	2
TAP	20	0	4
TAP	20	48	0
TAP	20	48	7
TAP	20	96	4
TAP	20	120	3
TAP	20	144	4
TAP	20	168	3
STR	20	192	6
SI_	20	192	6	96	48	2
SI_	20	192	6	96	48	3
TAP	20	240	7
TAP	20	288	6
STR	21	0	2
SUR	21	0	2	96	48	7
STR	21	0	6
SCL	21	0	6	96	48	3
TAP	21	192	0
TAP	21	264	1
TAP	21	264	7
TAP	21	336	2
TAP	21	336	6
TAP	22	0	3
TAP	22	0	5
TAP	22	48	2
TAP	22	48	4
TAP	22	96	3
TAP	22	120	4
TAP	22	144	3
TAP	22	168	4
STR	22	192	1
SI_	22	192	1	96	48	4
SI_	22	192	1	96	48	5
TAP	22	240	0
TAP	22	288	1
STR	23	0	6
SCR	23	0	6	96	96	2
STR	23	96	2
SCL	23	96	2	96	192	3
TAP	23	192	3
TAP	23	264	2
TAP	23	336	1
HLD	24	0	0	72
HLD	24	96	1	72
HLD	24	96	7	72
HLD	24	192	2	72
HLD	24	192	6	72
BRK	24	288	3
BRK	24	288	5
TAP	25	0	3
STR	25	0	4
SCR	25	0	4	96	48	7
TAP	25	96	2
TAP	25	144	1
HLD	25	192	0	192
TAP	25	264	7
TAP	25	336	6
STR	26	0	5
SUR	26	0	5	96	96	2
STR	26	96	2
SUL	26	96	2	96	96	5
TAP	26	192	6
TAP	26	240	7
TAP	26	288	0
TAP	26	336	1
STR	27	0	0
SI_	27	0	0	96	48	4
STR	27	0	7
SI_	27	0	7	96	48	3
HLD	27	192	5	192
TAP	27	264	6
TAP	27	336	7
STR	28	0	0
SI_	28	0	0	96	48	2
TAP	28	48	0
STR	28	96	6
SI_	28	96	6	96	48	4
TAP	28	144	6
STR	28	192	7
SI_	28	192	7	96	48	3
TAP	28	240	7
TAP	28	288	4
TAP	28	336	4
STR	29	0	3
SCL	29	0	3	96	48	0
TAP	29	0	4
TAP	29	96	5
TAP	29	144	6
HLD	29	192	7	192
TAP	29	264	0
TAP	29	336	1
STR	30	0	2
SUL	30	0	2	96	96	5
STR	30	96	5
SUR	30	96	5	96	96	2
TAP	30	192	1
TAP	30	240	0
TAP	30	288	7
TAP	30	336	6
STR	31	0	5
SCL	31	0	5	96	48	2
SUL	31	0	5	96	48	1
STR	31	192	1
SCR	31	192	1	96	48	4
SUR	31	192	1	96	48	5
STR	32	0	7
SI_	32	0	7	96	48	5
TAP	32	48	7
STR	32	96	1
SI_	32	96	1	96	48	3
TAP	32	144	1
STR	32	192	0
SI_	32	192	0	96	48	4
TAP	32	240	0
TAP	32	288	3
TAP	32	336	3
STR	33	0	3
SI_	33	0	3	96	48	6
TAP	33	0	4
TAP	33	96	6
TAP	33	144	7
STR	33	192	0
SI_	33	192	0	96	48	3
SI_	33	192	0	96	48	5
TAP	33	240	0
TAP	33	288	0
TAP	34	0	3
STR	34	0	4
SI_	34	0	4	96	48	1
TAP	34	96	1
TAP	34	144	0
STR	34	192	7
SI_	34	192	7	96	48	2
SI_	34	192	7	96	48	4
TAP	34	240	7
TAP	34	288	7
STR	35	0	3
SCL	35	0	3	96	48	0
TAP	35	0	4
TAP	35	96	7
TAP	35	144	6
STR	35	192	5
SCR	35	192	5	96	48	0
TAP	35	288	4
TAP	35	336	3
STR	36	0	2
SCR	36	0	2	96	96	6
STR	36	96	6
SCR	36	96	6	96	96	2
STR	36	192	2
SI_	36	192	2	96	48	6
SI_	36	192	2	96	48	7
BRK	37	0	6
TAP	37	48	5
TAP	37	96	4
TAP	37	144	3
TAP	37	192	2
TAP	37	240	1
TAP	37	288	0
TAP	37	288	7
TAP	37	336	0
TAP	37	336	7
BRK	38	0	1
TAP	38	48	2
TAP	38	96	3
TAP	38	144	4
TAP	38	192	5
TAP	38	240	6
TAP	38	288	0
TAP	38	288	7
TAP	38	336	0
TAP	38	336	7
BRK	39	0	0
TAP	39	24	7
TAP	39	48	0
TAP	39	72	7
TAP	39	96	1
TAP	39	120	6
TAP	39	144	1
TAP	39	168	6
TAP	39	192	2
TAP	39	216	5
TAP	39	240	2
TAP	39	264	5
TAP	39	288	3
TAP	39	312	4
TAP	39	336	3
TAP	39	360	4
STR	40	0	3
SUR	40	0	3	96	96	4
STR	40	96	4
SCR	40	96	4	96	96	3
TAP	40	192	0
BRK	40	288	7
STR	41	0	0
SUR	41	0	0	96	48	5
STR	41	0	1
SCR	41	0	1	96	48	4
TAP	41	96	0
TAP	41	96	1
TAP	41	192	6
TAP	41	192	7
TAP	41	264	0
TAP	41	264	5
TAP	41	336	1
TAP	41	336	4
STR	42	0	0
SCR	42	0	0	96	48	3
TAP	42	48	7
STR	42	96	0
SXL	42	96	0	96	96	5
TAP	42	144	6
TAP	42	192	0
STR	43	0	2
SUR	43	0	2	96	48	7
STR	43	0	3
SCR	43	0	3	96	48	6
TAP	43	96	2
TAP	43	96	3
TAP	43	192	0
TAP	43	192	1
TAP	43	264	2
TAP	43	264	7
TAP	43	336	3
TAP	43	336	6
STR	44	0	2
SCL	44	0	2	96	96	6
STR	44	96	6
SCR	44	96	6	96	96	2
TAP	44	144	5
HLD	44	192	4	96
STR	45	0	6
SCL	45	0	6	96	48	3
STR	45	0	7
SUL	45	0	7	96	48	2
TAP	45	96	6
TAP	45	96	7
TAP	45	192	0
TAP	45	192	1
TAP	45	264	2
TAP	45	264	7
TAP	45	336	3
TAP	45	336	6
STR	46	0	7
SCL	46	0	7	96	48	4
TAP	46	48	0
STR	46	96	7
SXR	46	96	7	96	96	2
TAP	46	144	1
TAP	46	192	7
STR	47	0	1
SCL	47	0	1	96	96	5
STR	47	96	5
SCL	47	96	5	96	96	1
STR	47	192	1
SSR	47	192	1	96	96	5
STR	47	288	5
SCR	47	288	5	96	192	4
TAP	48	0	4
TAP	48	192	5
TAP	48	240	2
BRK	48	288	0
BRK	48	288	7
STR	49	0	1
SCL	49	0	1	96	48	6
STR	49	0	2
SUL	49	0	2	96	48	5
TAP	49	96	1
TAP	49	96	2
TAP	49	192	3
TAP	49	192	4
TAP	49	264	0
TAP	49	264	2
TAP	49	336	5
TAP	49	336	7
STR	50	0	0
SCR	50	0	0	96	48	3
TAP	50	48	7
STR	50	96	0
SCL	50	96	0	96	96	1
TAP	50	144	6
TAP	50	192	0
STR	51	0	3
SUR	51	0	3	96	48	0
STR	51	0	4
SCR	51	0	4	96	48	7
TAP	51	96	3
TAP	51	96	4
TAP	51	192	1
TAP	51	192	2
TAP	51	264	0
TAP	51	264	6
TAP	51	336	3
TAP	51	336	5
STR	52	0	2
SUL	52	0	2	96	48	5
STR	52	96	7
SUL	52	96	7	96	96	2
SUR	52	96	7	96	96	4
TAP	52	144	7
TAP	52	192	7
STR	53	0	5
SUR	53	0	5	96	48	2
STR	53	0	6
SCR	53	0	6	96	48	1
TAP	53	96	5
TAP	53	96	6
TAP	53	192	3
TAP	53	192	4
TAP	53	264	5
TAP	53	264	7
TAP	53	336	0
TAP	53	336	2
STR	54	0	7
SCL	54	0	7	96	48	4
TAP	54	48	0
STR	54	96	7
SCR	54	96	7	96	96	6
TAP	54	144	1
TAP	54	192	7
STR	54	288	0
SLR	54	288	0	96	96	4
STR	55	0	4
SLR	55	0	4	96	96	0
STR	55	96	0
SCR	55	96	0	96	96	4
STR	55	192	4
SCR	55	192	4	96	96	0
TAP	55	288	0
HLD	56	0	4	72
HLD	56	96	3	72
HLD	56	96	5	72
HLD	56	192	2	72
HLD	56	192	6	72
BRK	56	288	1
BRK	56	288	7
STR	57	0	0
SI_	57	0	0	96	48	4
TAP	57	96	0
STR	57	96	6
SI_	57	96	6	96	48	2
STR	57	192	3
SI_	57	192	3	96	48	7
TAP	57	192	6
TAP	57	288	3
STR	57	288	5
SI_	57	288	5	96	48	1
TAP	58	0	0
TAP	58	0	5
TAP	58	48	0
TAP	58	96	6
TAP	58	120	7
TAP	58	144	5
TAP	58	168	0
STR	58	192	4
SF_	58	192	4	96	48	0
TAP	58	240	4
TAP	58	288	4
STR	59	0	7
SCL	59	0	7	96	48	4
STR	59	96	1
SCR	59	96	1	96	48	4
TAP	59	96	7
TAP	59	192	1
STR	59	192	5
SCR	59	192	5	96	48	0
STR	59	288	3
SCL	59	288	3	96	48	0
TAP	59	288	5
TAP	60	0	3
TAP	60	0	7
TAP	60	48	7
TAP	60	96	1
TAP	60	120	0
TAP	60	144	2
TAP	60	168	7
STR	60	192	3
SF_	60	192	3	96	48	7
TAP	60	240	3
TAP	60	288	3
BRK	61	0	3
HLD	61	0	5	336
TAP	61	48	2
TAP	61	96	1
TAP	61	144	0
TAP	61	192	7
TAP	61	240	6
TAP	61	288	4
TAP	61	336	3
HLD	62	0	2	336
BRK	62	0	4
TAP	62	48	5
TAP	62	96	6
TAP	62	144	7
TAP	62	192	0
TAP	62	240	1
TAP	62	288	3
TAP	62	336	4
BRK	63	0	0
TAP	63	24	4
TAP	63	48	0
TAP	63	72	4
TAP	63	96	1
TAP	63	120	5
TAP	63	144	1
TAP	63	168	5
TAP	63	192	2
TAP	63	216	6
TAP	63	240	2
TAP	63	264	6
TAP	63	288	3
TAP	63	312	7
TAP	63	336	3
TAP	63	360	7
STR	64	0	3
SUR	64	0	3	96	96	4
STR	64	96	4
SCR	64	96	4	96	96	3
TAP	64	192	0
TAP	64	288	7
BST	65	0	0
SCR	65	0	0	96	624	7
BST	65	0	7
SCL	65	0	7	96	624	0

T_REC_TAP	342
T_REC_BRK	16
T_REC_XTP	0
T_REC_HLD	21
T_REC_XHO	0
T_REC_STR	99
T_REC_BST	2
T_REC_XST	0
T_REC_TTP	0
T_REC_THO	0
T_REC_SLD	110
T_REC_ALL	590
T_NUM_TAP	441
T_NUM_BRK	18
T_NUM_HLD	21
T_NUM_SLD	110
T_NUM_ALL	590
T_JUDGE_TAP	459
T_JUDGE_HLD	78
T_JUDGE_SLD	110
T_JUDGE_ALL	647
TTM_EACHPAIRS	92
TTM_SCR_TAP	220500
TTM_SCR_BRK	46800
TTM_SCR_HLD	21000
TTM_SCR_SLD	165000
TTM_SCR_ALL	453300
TTM_SCR_S	438000
TTM_SCR_SS	451500
TTM_RAT_ACV	10039

