VERSION	0.00.00	1.03.00
FES_MODE	0
BPM_DEF	128.000	128.000	128.000	128.000
MET_DEF	4	4
RESOLUTION	384
CLK_DEF	384
COMPATIBLE_CODE	MA2

BPM	0	0	128.000
MET	0	0	4	4

STR	1	0	0
SUR	1	0	0	96	192	3
STR	2	0	7
SUL	2	0	7	96	192	4
STR	3	0	2
SUR	3	0	2	96	192	5
STR	4	0	7
SI_	4	0	7	96	48	5
STR	4	192	0
SI_	4	192	0	96	48	2
STR	5	0	4
SUL	5	0	4	96	192	1
STR	6	0	3
SUR	6	0	3	96	192	6
STR	7	0	5
SUL	7	0	5	96	192	2
HLD	8	0	0	192
HLD	8	96	7	96
BRK	8	288	1
BRK	8	288	6
TAP	9	0	0
TAP	9	96	1
TAP	9	192	2
TAP	9	192	3
TAP	9	288	3
TAP	9	288	4
TAP	10	0	7
TAP	10	96	6
TAP	10	192	4
TAP	10	192	5
TAP	10	288	3
TAP	10	288	4
TAP	11	0	4
TAP	11	96	5
TAP	11	192	6
TAP	11	192	7
TAP	11	288	0
TAP	11	288	7
TAP	12	0	3
TAP	12	96	2
TAP	12	192	0
TAP	12	192	1
TAP	12	288	0
TAP	12	288	7
TAP	13	0	7
TAP	13	48	7
TAP	13	96	0
TAP	13	144	0
TAP	13	192	1
TAP	13	240	1
TAP	13	288	2
TAP	14	0	0
TAP	14	48	0
TAP	14	96	7
TAP	14	144	7
TAP	14	192	6
TAP	14	240	6
TAP	14	288	5
STR	15	0	3
SCL	15	0	3	96	96	0
TAP	15	96	7
STR	15	192	7
SCL	15	192	7	96	96	4
STR	15	288	3
SCL	15	288	3	96	192	4
BRK	16	288	1
BRK	16	288	6
TAP	17	0	2
TAP	17	0	3
TAP	17	96	4
TAP	17	96	5
TAP	17	192	1
TAP	17	192	3
TAP	17	288	4
TAP	17	288	6
TAP	18	0	2
TAP	18	0	3
TAP	18	96	1
TAP	18	96	3
TAP	18	192	5
TAP	18	240	6
TAP	18	288	4
TAP	18	288	7
TAP	19	0	4
TAP	19	0	5
TAP	19	96	2
TAP	19	96	3
TAP	19	192	4
TAP	19	192	6
TAP	19	288	1
TAP	19	288	3
TAP	20	0	5
TAP	20	48	6
TAP	20	96	4
TAP	20	96	7
TAP	20	192	2
TAP	20	240	1
TAP	20	288	0
TAP	20	288	3
TAP	21	0	4
TAP	21	0	5
TAP	21	96	2
TAP	21	96	3
TAP	21	192	4
TAP	21	192	6
TAP	21	288	1
TAP	21	288	3
TAP	22	0	4
TAP	22	0	5
TAP	22	96	4
TAP	22	96	6
TAP	22	192	2
TAP	22	240	1
TAP	22	288	0
TAP	22	288	3
TAP	23	0	4
TAP	23	0	5
TAP	23	96	2
TAP	23	96	3
TAP	23	192	0
TAP	23	192	1
TAP	23	288	6
TAP	23	288	7
TAP	24	0	0
TAP	24	0	1
TAP	24	96	2
TAP	24	96	3
TAP	24	192	4
TAP	24	192	5
TAP	24	288	6
TAP	24	288	7
HLD	25	0	1	96
TAP	25	96	0
TAP	25	144	7
HLD	25	192	6	96
TAP	25	288	7
TAP	25	336	0
STR	26	0	1
SI_	26	0	1	96	96	4
STR	26	96	0
SI_	26	96	0	96	96	5
HLD	27	0	2	96
TAP	27	96	1
TAP	27	144	0
HLD	27	192	7	96
TAP	27	288	0
TAP	27	336	1
STR	28	0	2
SI_	28	0	2	96	96	7
STR	28	96	3
SI_	28	96	3	96	96	6
HLD	29	0	6	96
TAP	29	96	7
TAP	29	144	0
HLD	29	192	1	96
TAP	29	288	0
TAP	29	336	7
STR	30	0	6
SI_	30	0	6	96	96	3
STR	30	96	7
SI_	30	96	7	96	96	2
HLD	31	0	5	96
TAP	31	96	6
TAP	31	144	7
HLD	31	192	0	96
TAP	31	288	7
TAP	31	336	6
STR	32	0	5
SI_	32	0	5	96	96	0
STR	32	96	4
SI_	32	96	4	96	96	1
TAP	33	0	2
TAP	33	0	3
TAP	33	96	6
TAP	33	192	0
TAP	33	192	1
TAP	33	264	2
TAP	33	264	7
TAP	33	336	4
TAP	33	336	5
TAP	34	0	4
TAP	34	0	5
TAP	34	96	1
TAP	34	192	6
TAP	34	192	7
TAP	34	264	0
TAP	34	264	5
TAP	34	336	2
TAP	34	336	3
TAP	35	0	2
TAP	35	0	3
TAP	35	96	6
TAP	35	192	0
TAP	35	192	1
TAP	35	264	2
TAP	35	264	7
TAP	35	336	4
TAP	35	336	5
TAP	36	0	4
TAP	36	0	5
TAP	36	96	1
TAP	36	192	6
TAP	36	192	7
TAP	36	264	0
TAP	36	264	5
TAP	36	336	2
TAP	36	336	3
TAP	37	0	2
TAP	37	0	3
TAP	37	96	1
TAP	37	144	1
TAP	37	192	0
TAP	37	240	0
TAP	37	288	7
TAP	38	0	6
TAP	38	48	6
TAP	38	96	7
TAP	38	144	7
TAP	38	192	0
TAP	38	240	0
TAP	38	288	1
STR	39	0	4
SCR	39	0	4	96	96	7
TAP	39	96	0
STR	39	192	0
SCR	39	192	0	96	96	3
STR	39	288	4
SCR	39	288	4	96	192	3
BRK	40	288	1
BRK	40	288	6
STR	41	0	0
SI_	41	0	0	96	48	3
STR	41	0	7
SI_	41	0	7	96	48	4
TAP	41	192	2
TAP	41	192	5
TAP	41	264	3
TAP	41	264	4
TAP	41	336	2
TAP	41	336	5
TAP	42	0	2
TAP	42	0	5
TAP	42	96	1
TAP	42	96	3
TAP	42	192	4
TAP	42	192	6
TAP	42	288	2
TAP	42	288	5
HLD	43	0	0	96
HLD	43	0	1	96
TAP	43	192	2
TAP	43	192	3
TAP	43	264	1
TAP	43	264	4
TAP	43	336	0
TAP	43	336	5
STR	44	0	6
SCL	44	0	6	96	48	3
STR	44	0	7
SCR	44	0	7	96	48	2
TAP	44	192	1
TAP	44	192	4
STR	45	0	3
SI_	45	0	3	96	48	0
STR	45	0	4
SI_	45	0	4	96	48	7
TAP	45	192	1
TAP	45	192	6
TAP	45	264	0
TAP	45	264	7
TAP	45	336	1
TAP	45	336	6
TAP	46	0	1
TAP	46	0	6
TAP	46	96	4
TAP	46	96	7
TAP	46	192	2
TAP	46	192	5
TAP	46	288	0
TAP	46	288	3
STR	47	0	5
SI_	47	0	5	96	48	2
STR	47	96	6
SI_	47	96	6	96	48	1
HLD	47	336	7	144
HLD	48	0	0	96
TAP	48	192	3
TAP	48	192	4
BRK	48	288	1
BRK	48	288	6
STR	49	0	0
SI_	49	0	0	96	48	3
STR	49	0	7
SI_	49	0	7	96	48	4
TAP	49	192	2
TAP	49	192	5
TAP	49	264	3
TAP	49	264	4
TAP	49	336	2
TAP	49	336	5
TAP	50	0	2
TAP	50	0	5
TAP	50	96	4
TAP	50	96	6
TAP	50	192	1
TAP	50	192	3
TAP	50	288	2
TAP	50	288	5
HLD	51	0	6	96
HLD	51	0	7	96
TAP	51	192	4
TAP	51	192	5
TAP	51	264	3
TAP	51	264	6
TAP	51	336	2
TAP	51	336	7
STR	52	0	0
SCL	52	0	0	96	48	5
STR	52	0	1
SCR	52	0	1	96	48	4
TAP	52	192	3
TAP	52	192	6
STR	53	0	2
SI_	53	0	2	96	48	7
STR	53	0	5
SI_	53	0	5	96	48	0
TAP	53	192	1
TAP	53	192	6
TAP	53	264	0
TAP	53	264	7
TAP	53	336	1
TAP	53	336	6
TAP	54	0	1
TAP	54	0	6
TAP	54	96	0
TAP	54	96	7
TAP	54	192	4
TAP	54	192	5
STR	54	288	2
SI_	54	288	2	96	96	7
STR	55	0	3
SI_	55	0	3	96	96	6
STR	55	288	5
SI_	55	288	5	96	96	0
STR	56	0	4
SI_	56	0	4	96	96	1
BRK	56	288	1
BRK	56	288	6
TAP	57	0	6
TAP	57	48	7
TAP	57	96	0
TAP	57	96	5
HLD	57	192	6	72
HLD	57	264	5	72
TAP	57	336	4
TAP	58	0	1
TAP	58	48	1
TAP	58	96	4
TAP	58	144	4
TAP	58	192	3
TAP	58	240	6
TAP	58	288	5
TAP	58	288	7
TAP	59	0	1
TAP	59	48	0
TAP	59	96	2
TAP	59	96	7
HLD	59	192	1	72
HLD	59	264	2	72
TAP	59	336	3
TAP	60	0	6
TAP	60	48	6
TAP	60	96	3
TAP	60	144	3
TAP	60	192	4
TAP	60	240	1
TAP	60	288	0
TAP	60	288	2
TAP	61	0	2
TAP	61	48	2
TAP	61	96	3
TAP	61	144	3
TAP	61	192	4
TAP	61	240	4
TAP	61	288	5
TAP	61	336	5
TAP	62	0	1
TAP	62	48	1
TAP	62	96	0
TAP	62	144	0
TAP	62	192	7
TAP	62	240	7
TAP	62	288	6
TAP	62	336	6
TAP	63	0	0
TAP	63	48	1
TAP	63	96	2
TAP	63	144	3
TAP	63	192	4
TAP	63	240	5
TAP	63	288	6
TAP	63	336	7
STR	64	0	1
SCR	64	0	1	96	48	3
STR	64	96	7
SCL	64	96	7	96	48	5
STR	64	192	0
SI_	64	192	0	96	48	4
TAP	64	288	6
BST	65	0	7
SXL	65	0	7	96	624	4

T_REC_TAP	293
T_REC_BRK	10
T_REC_XTP	0
T_REC_HLD	20
T_REC_XHO	0
T_REC_STR	43
T_REC_BST	1
T_REC_XST	0
T_REC_TTP	0
T_REC_THO	0
T_REC_SLD	44
T_REC_ALL	411
T_NUM_TAP	336
T_NUM_BRK	11
T_NUM_HLD	20
T_NUM_SLD	44
T_NUM_ALL	411
T_JUDGE_TAP	347
T_JUDGE_HLD	43
T_JUDGE_SLD	44
T_JUDGE_ALL	434
TTM_EACHPAIRS	106
TTM_SCR_TAP	168000
TTM_SCR_BRK	28600
TTM_SCR_HLD	20000
TTM_SCR_SLD	66000
TTM_SCR_ALL	282600
TTM_SCR_S	273100
TTM_SCR_SS	281500
TTM_RAT_ACV	10039

