VERSION	0.00.00	1.03.00
FES_MODE	0
BPM_DEF	128.000	128.000	128.000	128.000
MET_DEF	4	4
RESOLUTION	384
CLK_DEF	384
COMPATIBLE_CODE	MA2

BPM	0	0	128.000
MET	0	0	4	4

HLD	1	0	2	192
TAP	1	192	3
HLD	2	0	5	192
TAP	2	192	4
HLD	3	0	6	192
TAP	3	192	7
HLD	4	0	1	192
TAP	4	192	0
HLD	5	0	6	192
TAP	5	192	5
HLD	6	0	1	192
TAP	6	192	2
HLD	7	0	7	192
TAP	7	192	0
TAP	8	0	3
TAP	8	96	4
TAP	8	192	2
TAP	8	192	5
HLD	9	0	1	192
TAP	9	192	0
HLD	10	0	6	192
TAP	10	192	7
HLD	11	0	2	192
TAP	11	192	3
HLD	12	0	5	192
TAP	12	192	4
TAP	13	0	0
TAP	13	96	1
TAP	13	192	2
TAP	13	288	3
TAP	14	0	4
TAP	14	96	5
TAP	14	192	3
TAP	14	192	6
TAP	15	0	6
TAP	15	0	7
TAP	15	96	6
TAP	15	96	7
TAP	15	192	4
TAP	15	192	5
TAP	15	288	3
BST	16	0	2
SI_	16	0	2	96	192	7
TAP	17	0	7
TAP	17	96	6
TAP	17	192	6
TAP	17	192	7
TAP	18	0	0
TAP	18	96	1
TAP	18	192	0
TAP	18	192	1
TAP	19	0	6
TAP	19	96	7
TAP	19	192	0
TAP	19	288	1
TAP	20	0	0
TAP	20	96	7
TAP	20	192	1
TAP	20	192	6
TAP	21	0	4
TAP	21	96	5
TAP	21	192	4
TAP	21	192	5
TAP	22	0	3
TAP	22	96	2
TAP	22	192	2
TAP	22	192	3
TAP	23	0	5
TAP	23	96	4
TAP	23	192	3
TAP	23	288	2
TAP	24	0	3
TAP	24	96	4
BRK	24	192	2
BRK	24	192	5
TAP	25	0	3
TAP	25	96	2
TAP	25	192	1
TAP	25	192	4
TAP	26	0	4
TAP	26	96	5
TAP	26	192	3
TAP	26	192	6
TAP	27	0	3
TAP	27	96	2
TAP	27	192	3
TAP	27	288	2
TAP	28	0	0
TAP	28	96	1
TAP	28	192	2
TAP	28	192	7
TAP	29	0	4
TAP	29	96	5
TAP	29	192	3
TAP	29	192	6
TAP	30	0	3
TAP	30	96	2
TAP	30	192	1
TAP	30	192	4
TAP	31	0	4
TAP	31	96	5
TAP	31	192	4
TAP	31	288	5
TAP	32	0	7
TAP	32	96	6
TAP	32	192	0
TAP	32	192	5
TAP	33	0	1
TAP	33	96	0
TAP	33	192	1
TAP	34	0	6
TAP	34	96	7
TAP	34	192	6
TAP	35	0	2
TAP	35	96	3
TAP	35	192	2
TAP	36	0	5
TAP	36	96	4
TAP	36	192	5
TAP	37	0	1
TAP	37	96	0
TAP	37	192	6
TAP	37	288	7
TAP	38	0	0
TAP	38	0	7
TAP	38	96	1
TAP	38	96	6
TAP	38	192	2
TAP	38	192	5
TAP	38	288	3
TAP	38	288	4
TAP	39	0	2
TAP	39	96	3
TAP	39	192	5
BST	39	288	4
SI_	39	288	4	96	192	0
TAP	41	0	1
TAP	41	96	0
TAP	41	96	1
TAP	41	192	1
TAP	41	288	0
TAP	41	288	1
TAP	42	0	2
TAP	42	96	2
TAP	42	96	3
TAP	42	192	1
TAP	42	192	4
TAP	43	0	6
TAP	43	96	6
TAP	43	96	7
TAP	43	192	6
TAP	43	288	6
TAP	43	288	7
TAP	44	0	5
TAP	44	96	4
TAP	44	96	5
TAP	44	192	3
TAP	44	192	6
TAP	45	0	2
TAP	45	96	3
TAP	45	96	4
TAP	45	192	5
TAP	45	288	3
TAP	45	288	4
TAP	46	0	2
TAP	46	96	3
TAP	46	96	4
TAP	46	192	3
TAP	46	192	6
TAP	47	0	7
TAP	47	96	6
TAP	47	192	5
TAP	47	288	4
TAP	48	0	2
TAP	48	0	3
TAP	48	96	0
TAP	48	96	1
TAP	48	192	6
TAP	48	192	7
TAP	49	0	6
TAP	49	96	6
TAP	49	96	7
TAP	49	192	5
TAP	49	288	4
TAP	49	288	5
TAP	50	0	2
TAP	50	96	2
TAP	50	96	3
TAP	50	192	1
TAP	50	192	4
TAP	51	0	1
TAP	51	96	0
TAP	51	96	1
TAP	51	192	2
TAP	51	288	2
TAP	51	288	3
TAP	52	0	5
TAP	52	96	4
TAP	52	96	5
TAP	52	192	3
TAP	52	192	6
TAP	53	0	6
TAP	53	96	3
TAP	53	96	4
TAP	53	192	1
TAP	53	288	3
TAP	53	288	4
TAP	54	0	6
TAP	54	96	3
TAP	54	96	4
TAP	54	192	0
TAP	54	192	5
HLD	55	0	3	192
TAP	55	192	2
HLD	56	0	4	192
TAP	56	192	5
TAP	57	0	7
TAP	57	96	0
TAP	57	192	1
TAP	57	288	2
TAP	58	0	2
TAP	58	0	3
TAP	58	96	1
TAP	58	96	4
TAP	58	192	0
TAP	58	192	5
TAP	59	0	0
TAP	59	96	7
TAP	59	192	6
TAP	59	288	5
TAP	60	0	4
TAP	60	0	5
TAP	60	96	3
TAP	60	96	6
TAP	60	192	2
TAP	60	192	7
TAP	61	0	3
TAP	61	96	4
TAP	61	192	5
TAP	61	288	6
TAP	62	0	6
TAP	62	0	7
TAP	62	96	0
TAP	62	96	5
TAP	62	192	1
TAP	62	192	4
TAP	63	0	4
TAP	63	96	3
TAP	63	192	2
TAP	63	288	1
TAP	64	0	0
TAP	64	0	1
TAP	64	96	2
TAP	64	96	7
TAP	64	192	3
TAP	64	192	6
TAP	64	288	4
TAP	64	288	5
BRK	65	0	3
BRK	65	0	6

T_REC_TAP	239
T_REC_BRK	4
T_REC_XTP	0
T_REC_HLD	13
T_REC_XHO	0
T_REC_STR	0
T_REC_BST	2
T_REC_XST	0
T_REC_TTP	0
T_REC_THO	0
T_REC_SLD	2
T_REC_ALL	260
T_NUM_TAP	239
T_NUM_BRK	6
T_NUM_HLD	13
T_NUM_SLD	2
T_NUM_ALL	260
T_JUDGE_TAP	245
T_JUDGE_HLD	52
T_JUDGE_SLD	2
T_JUDGE_ALL	299
TTM_EACHPAIRS	62
TTM_SCR_TAP	119500
TTM_SCR_BRK	15600
TTM_SCR_HLD	13000
TTM_SCR_SLD	3000
TTM_SCR_ALL	151100
TTM_SCR_S	146000
TTM_SCR_SS	150500
TTM_RAT_ACV	10039

