VERSION	0.00.00	1.03.00
FES_MODE	0
BPM_DEF	128.000	128.000	128.000	128.000
MET_DEF	4	4
RESOLUTION	384
CLK_DEF	384
COMPATIBLE_CODE	MA2

BPM	0	0	128.000
MET	0	0	4	4

HLD	1	0	3	192
HLD	2	0	4	192
TAP	3	0	5
TAP	3	192	5
TAP	4	0	6
TAP	4	192	6
HLD	5	0	7	192
HLD	6	0	0	192
TAP	7	0	1
TAP	7	192	1
TAP	8	0	2
TAP	8	192	2
BRK	9	0	3
TAP	9	96	3
TAP	9	192	3
TAP	10	0	4
TAP	10	96	4
TAP	10	192	4
TAP	11	0	2
TAP	11	96	2
TAP	11	192	2
TAP	11	192	3
TAP	12	0	5
TAP	12	96	5
TAP	12	192	4
TAP	12	192	5
TAP	13	0	2
TAP	13	96	2
TAP	13	192	3
TAP	13	192	4
TAP	14	0	5
TAP	14	96	5
TAP	14	192	3
TAP	14	192	4
HLD	15	0	3	576
HLD	16	0	4	192
TAP	17	0	3
TAP	17	96	3
TAP	17	192	3
TAP	18	0	2
TAP	18	96	2
TAP	18	192	2
TAP	19	0	1
TAP	19	96	1
TAP	19	192	0
TAP	19	192	1
TAP	20	0	0
TAP	20	96	7
TAP	20	192	0
TAP	21	0	7
TAP	21	96	7
TAP	21	192	7
TAP	22	0	6
TAP	22	96	6
TAP	22	192	6
TAP	23	0	5
TAP	23	96	5
TAP	23	192	4
TAP	23	192	5
TAP	24	0	3
TAP	24	96	4
TAP	24	192	3
TAP	25	0	3
TAP	25	192	3
HLD	26	0	2	192
TAP	27	0	4
TAP	27	192	4
HLD	28	0	5	192
TAP	29	0	6
TAP	29	192	6
HLD	30	0	7	192
TAP	31	0	1
TAP	31	192	1
HLD	32	0	0	192
TAP	33	0	0
TAP	33	96	0
TAP	33	192	0
TAP	34	0	1
TAP	34	96	1
TAP	34	192	1
TAP	35	0	2
TAP	35	96	2
TAP	35	192	2
TAP	36	0	3
TAP	36	96	4
TAP	36	192	3
TAP	37	0	4
TAP	37	96	4
TAP	37	192	4
TAP	38	0	5
TAP	38	96	5
TAP	38	192	5
TAP	39	0	6
TAP	39	96	6
TAP	39	192	6
HLD	40	0	0	192
HLD	40	0	7	192
TAP	41	0	7
TAP	41	96	7
TAP	41	192	6
TAP	42	0	5
TAP	42	96	4
TAP	42	192	5
TAP	43	0	3
TAP	43	96	3
TAP	43	192	2
TAP	44	0	1
TAP	44	96	0
TAP	44	192	1
TAP	45	0	1
TAP	45	96	1
TAP	45	192	0
TAP	45	192	1
TAP	46	0	2
TAP	46	0	3
TAP	46	96	2
TAP	46	96	3
TAP	46	192	2
TAP	46	192	3
STR	47	0	4
SI_	47	0	4	96	288	7
TAP	49	0	0
TAP	49	96	0
TAP	49	192	1
TAP	50	0	2
TAP	50	96	3
TAP	50	192	2
TAP	51	0	4
TAP	51	96	4
TAP	51	192	5
TAP	52	0	6
TAP	52	96	7
TAP	52	192	6
TAP	53	0	6
TAP	53	96	6
TAP	53	192	6
TAP	53	192	7
TAP	54	0	4
TAP	54	0	5
TAP	54	96	4
TAP	54	96	5
TAP	54	192	4
TAP	54	192	5
HLD	55	0	3	576
HLD	56	0	4	192
BRK	57	0	4
TAP	57	96	4
TAP	57	192	4
TAP	58	0	5
TAP	58	96	5
TAP	58	192	5
TAP	59	0	6
TAP	59	96	6
TAP	59	192	6
HLD	60	0	0	192
HLD	60	0	7	192
TAP	61	0	0
TAP	61	96	0
TAP	61	192	0
TAP	62	0	1
TAP	62	96	1
TAP	62	192	1
TAP	63	0	2
TAP	63	96	2
TAP	63	192	2
HLD	64	0	3	288
HLD	64	0	4	288
BRK	65	0	3
BRK	65	0	4

T_REC_TAP	145
T_REC_BRK	4
T_REC_XTP	0
T_REC_HLD	18
T_REC_XHO	0
T_REC_STR	1
T_REC_BST	0
T_REC_XST	0
T_REC_TTP	0
T_REC_THO	0
T_REC_SLD	1
T_REC_ALL	169
T_NUM_TAP	146
T_NUM_BRK	4
T_NUM_HLD	18
T_NUM_SLD	1
T_NUM_ALL	169
T_JUDGE_TAP	150
T_JUDGE_HLD	92
T_JUDGE_SLD	1
T_JUDGE_ALL	243
TTM_EACHPAIRS	18
TTM_SCR_TAP	73000
TTM_SCR_BRK	10400
TTM_SCR_HLD	18000
TTM_SCR_SLD	1500
TTM_SCR_ALL	102900
TTM_SCR_S	99450
TTM_SCR_SS	102500
TTM_RAT_ACV	10039

