VERSION	0.00.00	1.03.00
FES_MODE	0
BPM_DEF	140.000	140.000	140.000	140.000
MET_DEF	4	4
RESOLUTION	384
CLK_DEF	384
COMPATIBLE_CODE	MA2

BPM	0	0	140.000
MET	0	0	4	4

TAP	1	0	5
HLD	1	48	5	144
TAP	1	192	4
HLD	1	240	4	144
TAP	2	0	3
HLD	2	48	3	144
TAP	2	192	2
HLD	2	240	2	144
TAP	3	0	3
HLD	3	48	3	144
TAP	3	192	4
HLD	3	240	4	144
TAP	4	0	3
HLD	4	48	3	144
TAP	4	192	4
TAP	4	288	3
TAP	4	288	4
TAP	5	0	1
HLD	5	0	3	96
STR	5	96	4
SCL	5	96	4	96	48	1
HLD	5	192	7	192
TAP	5	288	5
STR	6	0	4
SI_	6	0	4	96	48	1
TAP	6	96	0
STR	6	192	0
SI_	6	192	0	96	48	5
TAP	6	192	1
TAP	6	288	4
HLD	7	0	7	96
HLD	7	96	1	96
STR	7	192	2
SCR	7	192	2	96	48	5
TAP	8	0	0
TAP	8	0	6
STR	8	48	7
SV_	8	48	7	96	48	2
SV_	8	48	7	96	48	4
TAP	8	288	3
TAP	8	288	4
HLD	9	0	4	96
TAP	9	0	6
STR	9	96	3
SCR	9	96	3	96	48	6
HLD	9	192	0	192
TAP	9	288	2
STR	10	0	3
SI_	10	0	3	96	48	6
TAP	10	96	7
TAP	10	192	6
STR	10	192	7
SI_	10	192	7	96	48	2
TAP	10	288	3
HLD	11	0	0	96
HLD	11	96	6	96
STR	11	192	5
SCL	11	192	5	96	48	2
TAP	12	0	1
TAP	12	0	7
STR	12	48	1
SI_	12	48	1	96	48	5
STR	12	48	7
SI_	12	48	7	96	48	3
TAP	12	288	2
STR	12	288	7
SI_	12	288	7	96	48	4
TAP	13	0	5
TAP	13	0	7
TAP	13	96	0
TAP	13	96	1
TAP	13	144	2
TAP	13	144	7
TAP	13	240	6
TAP	13	240	7
STR	13	288	0
SI_	13	288	0	96	48	3
TAP	13	288	5
TAP	14	0	0
TAP	14	0	2
TAP	14	96	6
TAP	14	96	7
TAP	14	144	0
TAP	14	144	5
TAP	14	240	0
TAP	14	240	1
TAP	14	288	2
STR	14	288	7
SI_	14	288	7	96	48	4
TAP	15	0	5
TAP	15	0	7
TAP	15	96	0
TAP	15	96	1
TAP	15	144	2
TAP	15	144	7
TAP	15	240	6
TAP	15	240	7
STR	15	288	0
SCR	15	288	0	96	96	3
TAP	15	288	5
STR	16	0	3
SCR	16	0	3	96	96	6
STR	16	96	6
SCR	16	96	6	96	96	1
TAP	16	192	1
STR	16	288	4
SI_	16	288	4	96	48	7
TAP	17	0	4
TAP	17	0	6
TAP	17	96	2
TAP	17	96	3
TAP	17	144	1
TAP	17	144	4
TAP	17	240	4
TAP	17	240	5
STR	17	288	3
SI_	17	288	3	96	48	0
TAP	17	288	6
TAP	18	0	1
TAP	18	0	3
TAP	18	96	4
TAP	18	96	5
TAP	18	144	3
TAP	18	144	6
TAP	18	240	2
TAP	18	240	3
TAP	18	288	1
STR	18	288	4
SI_	18	288	4	96	48	7
TAP	19	0	4
TAP	19	0	6
TAP	19	96	2
TAP	19	96	3
TAP	19	144	1
TAP	19	144	4
TAP	19	240	4
TAP	19	240	5
STR	19	288	3
SCL	19	288	3	96	192	4
TAP	19	288	6
TAP	20	0	3
TAP	20	0	4
BST	20	288	3
SI_	20	288	3	96	48	0
BRK	20	288	4
TAP	21	0	3
STR	21	0	7
SI_	21	0	7	96	48	4
STR	21	96	1
SI_	21	96	1	96	48	6
TAP	21	96	7
TAP	21	192	1
STR	21	192	5
SI_	21	192	5	96	48	2
STR	21	288	1
SI_	21	288	1	96	48	4
TAP	21	288	5
TAP	22	0	1
STR	22	0	6
SI_	22	0	6	96	48	3
TAP	22	48	6
STR	22	96	2
SI_	22	96	2	96	48	7
TAP	22	96	6
TAP	22	144	2
TAP	22	192	2
TAP	22	192	5
STR	22	288	0
SI_	22	288	0	96	48	4
TAP	22	288	7
TAP	23	0	0
STR	23	0	7
SI_	23	0	7	96	48	3
TAP	23	48	7
STR	23	96	2
SI_	23	96	2	96	48	0
TAP	23	96	7
TAP	23	144	2
TAP	23	192	2
STR	23	192	4
SI_	23	192	4	96	48	6
TAP	23	240	4
STR	23	288	0
SI_	23	288	0	96	48	4
TAP	23	288	4
TAP	23	336	0
TAP	24	0	0
STR	24	0	5
SI_	24	0	5	96	48	7
TAP	24	48	5
STR	24	96	3
SI_	24	96	3	96	48	1
TAP	24	96	5
TAP	24	144	3
TAP	24	192	3
TAP	24	192	4
TAP	24	288	3
STR	24	288	4
SI_	24	288	4	96	48	7
STR	25	0	0
SI_	25	0	0	96	48	3
TAP	25	0	4
TAP	25	96	0
STR	25	96	6
SI_	25	96	6	96	48	1
STR	25	192	2
SI_	25	192	2	96	48	5
TAP	25	192	6
TAP	25	288	2
STR	25	288	6
SI_	25	288	6	96	48	3
STR	26	0	1
SI_	26	0	1	96	48	4
TAP	26	0	6
TAP	26	48	1
TAP	26	96	1
STR	26	96	5
SI_	26	96	5	96	48	0
TAP	26	144	5
TAP	26	192	2
TAP	26	192	5
TAP	26	288	0
STR	26	288	7
SI_	26	288	7	96	48	3
STR	27	0	0
SI_	27	0	0	96	48	4
TAP	27	0	7
TAP	27	48	0
TAP	27	96	0
STR	27	96	5
SI_	27	96	5	96	48	7
TAP	27	144	5
STR	27	192	3
SI_	27	192	3	96	48	1
TAP	27	192	5
TAP	27	240	3
TAP	27	288	3
STR	27	288	7
SI_	27	288	7	96	48	3
TAP	27	336	7
STR	28	0	2
SI_	28	0	2	96	48	0
TAP	28	0	7
TAP	28	48	2
TAP	28	96	2
STR	28	96	4
SI_	28	96	4	96	48	6
TAP	28	144	4
TAP	28	192	3
TAP	28	192	4
TAP	28	288	2
TAP	28	288	3
STR	29	0	6
SCL	29	0	6	96	48	3
TAP	29	0	7
TAP	29	96	0
TAP	29	144	1
TAP	29	192	2
STR	29	192	3
SCR	29	192	3	96	48	6
TAP	29	240	1
TAP	29	288	0
TAP	30	0	0
STR	30	0	1
SCR	30	0	1	96	48	4
TAP	30	96	7
TAP	30	144	6
STR	30	192	4
SCL	30	192	4	96	48	1
TAP	30	192	5
TAP	30	240	6
TAP	30	288	7
STR	31	0	6
SCL	31	0	6	96	48	3
TAP	31	0	7
TAP	31	96	0
TAP	31	144	1
TAP	31	192	2
STR	31	192	3
SCR	31	192	3	96	48	6
TAP	31	240	1
TAP	31	288	0
TAP	32	0	0
STR	32	0	1
SCR	32	0	1	96	48	4
TAP	32	96	5
TAP	32	144	6
TAP	32	192	0
TAP	32	192	7
TAP	32	288	3
STR	32	288	4
SI_	32	288	4	96	48	0
STR	33	0	0
SF_	33	0	0	96	48	4
TAP	33	192	7
TAP	33	240	0
TAP	33	240	6
TAP	33	288	3
TAP	33	336	2
TAP	33	336	4
TAP	34	0	0
TAP	34	48	1
TAP	34	48	7
STR	34	96	4
SI_	34	96	4	96	48	7
TAP	34	192	2
TAP	34	240	1
TAP	34	288	0
TAP	34	312	0
TAP	34	336	0
TAP	35	0	6
HLD	35	0	7	72
HLD	35	72	5	72
HLD	35	144	3	72
HLD	35	216	1	72
TAP	35	288	0
STR	35	336	2
SI_	35	336	2	96	48	0
TAP	35	336	7
TAP	36	0	2
STR	36	48	4
SI_	36	48	4	96	48	6
TAP	36	96	4
STR	36	144	3
SI_	36	144	3	96	48	7
TAP	36	192	3
TAP	36	240	4
TAP	36	288	4
TAP	36	336	4
HLD	37	0	5	72
HLD	37	72	4	72
TAP	37	144	3
TAP	37	192	2
TAP	37	240	3
TAP	37	288	2
TAP	37	288	4
HLD	38	0	2	72
HLD	38	72	3	72
TAP	38	144	4
TAP	38	192	5
TAP	38	240	4
TAP	38	288	3
TAP	38	288	5
HLD	39	0	6	72
HLD	39	72	5	72
TAP	39	144	4
TAP	39	192	3
TAP	39	240	2
TAP	39	288	1
TAP	39	288	3
HLD	40	0	1	72
HLD	40	72	2	72
TAP	40	144	3
TAP	40	192	3
TAP	40	192	4
TAP	40	288	3
TAP	40	288	5
TAP	41	0	2
TAP	41	0	4
TAP	41	96	3
TAP	41	96	5
TAP	41	192	2
TAP	41	192	4
TAP	41	288	3
TAP	41	288	5
TAP	42	0	2
TAP	42	0	4
TAP	42	48	3
TAP	42	96	3
TAP	42	96	5
TAP	42	144	4
TAP	42	192	2
TAP	42	192	4
TAP	42	288	3
TAP	42	288	5
TAP	43	0	1
TAP	43	0	4
TAP	43	48	2
TAP	43	96	3
TAP	43	96	6
TAP	43	144	5
TAP	43	192	1
TAP	43	192	4
TAP	43	240	2
TAP	43	288	3
TAP	43	288	6
TAP	43	336	5
TAP	44	0	1
TAP	44	0	4
TAP	44	48	2
TAP	44	96	3
TAP	44	96	6
TAP	44	144	5
TAP	44	192	1
TAP	44	192	4
TAP	44	288	3
TAP	44	288	4
STR	45	0	1
SI_	45	0	1	96	48	4
TAP	45	0	2
TAP	45	48	1
TAP	45	96	0
TAP	45	96	1
TAP	45	192	5
STR	45	192	6
SI_	45	192	6	96	48	3
TAP	45	240	6
TAP	45	288	6
TAP	45	288	7
STR	46	0	1
SI_	46	0	1	96	48	4
TAP	46	0	2
TAP	46	48	1
TAP	46	96	0
TAP	46	96	1
TAP	46	192	5
STR	46	192	6
SI_	46	192	6	96	48	3
TAP	46	240	6
TAP	46	288	6
TAP	46	288	7
TAP	47	0	1
STR	47	0	2
SI_	47	0	2	96	48	7
TAP	47	48	2
TAP	47	96	2
TAP	47	96	3
STR	47	192	5
SI_	47	192	5	96	48	0
TAP	47	192	6
TAP	47	240	5
TAP	47	288	4
TAP	47	288	5
TAP	48	0	1
STR	48	0	2
SI_	48	0	2	96	48	7
TAP	48	48	2
TAP	48	96	2
TAP	48	96	3
STR	48	192	5
SI_	48	192	5	96	48	0
TAP	48	192	6
TAP	48	240	5
TAP	48	288	4
TAP	48	288	5
STR	49	0	1
SI_	49	0	1	96	48	4
TAP	49	0	2
TAP	49	48	1
TAP	49	96	0
TAP	49	96	1
TAP	49	144	7
TAP	49	192	5
STR	49	192	6
SI_	49	192	6	96	48	3
TAP	49	240	6
TAP	49	288	6
TAP	49	288	7
TAP	49	336	0
STR	50	0	1
SI_	50	0	1	96	48	4
TAP	50	0	2
TAP	50	48	1
TAP	50	96	0
TAP	50	96	1
TAP	50	144	7
TAP	50	192	5
STR	50	192	6
SI_	50	192	6	96	48	3
TAP	50	240	6
TAP	50	288	6
TAP	50	288	7
TAP	50	336	0
TAP	51	0	1
STR	51	0	2
SI_	51	0	2	96	48	7
TAP	51	48	2
TAP	51	96	2
TAP	51	96	3
TAP	51	144	4
STR	51	192	5
SI_	51	192	5	96	48	0
TAP	51	192	6
TAP	51	240	5
TAP	51	288	4
TAP	51	288	5
TAP	51	336	3
TAP	52	0	1
STR	52	0	2
SI_	52	0	2	96	48	7
TAP	52	48	2
TAP	52	96	2
TAP	52	96	3
TAP	52	144	4
STR	52	192	5
SI_	52	192	5	96	48	0
TAP	52	192	6
TAP	52	240	5
TAP	52	288	4
TAP	52	288	5
TAP	52	336	3
STR	53	0	1
SCR	53	0	1	96	48	4
TAP	53	0	2
TAP	53	48	1
TAP	53	96	0
TAP	53	96	1
TAP	53	144	7
TAP	53	192	5
STR	53	192	6
SCL	53	192	6	96	48	3
TAP	53	240	6
TAP	53	288	6
TAP	53	288	7
TAP	53	336	0
STR	54	0	1
SCR	54	0	1	96	48	4
TAP	54	0	2
TAP	54	48	1
TAP	54	96	0
TAP	54	96	1
TAP	54	144	7
TAP	54	192	5
STR	54	192	6
SCL	54	192	6	96	48	3
TAP	54	240	6
TAP	54	288	6
TAP	54	288	7
TAP	54	336	0
TAP	55	0	1
STR	55	0	2
SCL	55	0	2	96	48	7
TAP	55	48	2
TAP	55	96	2
TAP	55	96	3
TAP	55	144	4
STR	55	192	5
SCR	55	192	5	96	48	0
TAP	55	192	6
TAP	55	240	5
TAP	55	288	4
TAP	55	288	5
TAP	55	336	3
TAP	56	0	1
STR	56	0	2
SCL	56	0	2	96	48	7
TAP	56	48	2
TAP	56	96	2
TAP	56	96	3
TAP	56	144	4
BRK	56	192	1
BRK	56	192	6
TAP	56	288	3
TAP	56	288	4
STR	57	0	0
SI_	57	0	0	96	48	5
TAP	57	0	7
TAP	57	48	1
STR	57	96	0
SI_	57	96	0	96	48	3
TAP	57	96	2
TAP	57	144	1
STR	57	192	0
SI_	57	192	0	96	48	4
TAP	57	192	6
TAP	57	240	7
TAP	57	288	0
TAP	57	288	2
TAP	58	0	1
STR	58	0	7
SI_	58	0	7	96	48	2
TAP	58	48	6
TAP	58	96	5
STR	58	96	7
SI_	58	96	7	96	48	4
TAP	58	144	6
TAP	58	192	1
STR	58	192	7
SI_	58	192	7	96	48	3
TAP	58	240	0
TAP	58	288	5
TAP	58	288	7
STR	59	0	0
SI_	59	0	0	96	48	5
TAP	59	0	6
TAP	59	48	1
STR	59	96	0
SI_	59	96	0	96	48	3
TAP	59	96	2
TAP	59	144	1
STR	59	192	0
SI_	59	192	0	96	48	4
TAP	59	192	6
TAP	59	240	7
TAP	59	288	0
TAP	59	288	2
TAP	60	0	1
STR	60	0	7
SI_	60	0	7	96	48	2
TAP	60	48	6
TAP	60	96	5
STR	60	96	7
SI_	60	96	7	96	48	4
TAP	60	144	6
TAP	60	192	1
STR	60	192	7
SI_	60	192	7	96	48	3
TAP	60	240	0
TAP	60	288	5
TAP	60	288	7
STR	61	0	0
SCL	61	0	0	96	48	5
TAP	61	0	6
TAP	61	48	1
STR	61	96	0
SCR	61	96	0	96	48	3
TAP	61	96	3
TAP	61	144	1
STR	61	192	0
SI_	61	192	0	96	48	4
TAP	61	192	5
TAP	61	240	7
TAP	61	288	0
TAP	61	288	3
TAP	62	0	1
STR	62	0	7
SCR	62	0	7	96	48	2
TAP	62	48	6
TAP	62	96	4
STR	62	96	7
SCL	62	96	7	96	48	4
TAP	62	144	6
TAP	62	192	2
STR	62	192	7
SI_	62	192	7	96	48	3
TAP	62	240	0
TAP	62	288	4
TAP	62	288	7
STR	63	0	0
SCL	63	0	0	96	48	5
TAP	63	0	6
TAP	63	48	1
STR	63	96	0
SCR	63	96	0	96	48	3
TAP	63	96	3
TAP	63	144	1
STR	63	192	0
SI_	63	192	0	96	48	4
TAP	63	192	5
TAP	63	240	7
TAP	63	288	0
TAP	63	288	3
TAP	63	336	1
TAP	64	0	0
TAP	64	0	4
STR	65	0	4
SI_	65	0	4	96	48	1
TAP	65	0	5
TAP	65	96	4
TAP	65	96	7
TAP	65	144	7
STR	65	192	4
SI_	65	192	4	96	48	1
TAP	65	192	6
TAP	65	240	6
TAP	65	288	4
TAP	65	288	5
TAP	65	336	5
STR	66	0	4
SI_	66	0	4	96	48	1
TAP	66	0	5
TAP	66	48	5
TAP	66	96	4
TAP	66	96	7
TAP	66	144	7
STR	66	192	4
SI_	66	192	4	96	48	1
TAP	66	192	6
TAP	66	240	6
TAP	66	288	4
TAP	66	288	5
TAP	66	336	5
TAP	67	0	2
STR	67	0	3
SI_	67	0	3	96	48	6
TAP	67	96	0
TAP	67	96	3
TAP	67	144	0
TAP	67	192	1
STR	67	192	3
SI_	67	192	3	96	48	6
TAP	67	240	1
TAP	67	288	2
TAP	67	288	3
TAP	67	336	2
TAP	68	0	2
STR	68	0	3
SI_	68	0	3	96	48	6
TAP	68	48	2
TAP	68	96	0
TAP	68	96	3
TAP	68	144	0
TAP	68	192	1
STR	68	192	3
SI_	68	192	3	96	48	6
TAP	68	240	1
TAP	68	288	2
TAP	68	288	3
TAP	68	336	2
STR	69	0	4
SI_	69	0	4	96	48	1
TAP	69	0	5
TAP	69	96	4
TAP	69	96	7
TAP	69	144	7
STR	69	192	4
SI_	69	192	4	96	48	1
TAP	69	192	6
TAP	69	240	6
TAP	69	288	4
TAP	69	288	5
TAP	69	336	5
STR	70	0	4
SI_	70	0	4	96	48	1
TAP	70	0	5
TAP	70	48	5
TAP	70	96	4
TAP	70	96	7
TAP	70	144	7
STR	70	192	4
SI_	70	192	4	96	48	1
TAP	70	192	6
TAP	70	240	6
TAP	70	288	4
TAP	70	288	5
TAP	70	336	5
TAP	71	0	2
STR	71	0	3
SI_	71	0	3	96	48	6
TAP	71	96	0
TAP	71	96	3
TAP	71	144	0
TAP	71	192	1
STR	71	192	3
SI_	71	192	3	96	48	6
TAP	71	240	1
TAP	71	288	2
TAP	71	288	3
TAP	71	336	2
TAP	72	0	2
STR	72	0	3
SI_	72	0	3	96	48	6
TAP	72	48	2
TAP	72	96	0
TAP	72	96	3
TAP	72	144	0
TAP	72	192	1
STR	72	192	3
SI_	72	192	3	96	48	6
TAP	72	240	1
BRK	72	288	2
BRK	72	288	3
HLD	73	0	0	192
HLD	73	192	1	192
HLD	74	0	2	192
STR	74	192	3
SLL	74	192	3	96	192	7
SLR	74	192	3	96	192	7

T_REC_TAP	485
T_REC_BRK	5
T_REC_XTP	0
T_REC_HLD	30
T_REC_XHO	0
T_REC_STR	122
T_REC_BST	1
T_REC_XST	0
T_REC_TTP	0
T_REC_THO	0
T_REC_SLD	125
T_REC_ALL	768
T_NUM_TAP	607
T_NUM_BRK	6
T_NUM_HLD	30
T_NUM_SLD	125
T_NUM_ALL	768
T_JUDGE_TAP	613
T_JUDGE_HLD	77
T_JUDGE_SLD	125
T_JUDGE_ALL	815
TTM_EACHPAIRS	218
TTM_SCR_TAP	303500
TTM_SCR_BRK	15600
TTM_SCR_HLD	30000
TTM_SCR_SLD	187500
TTM_SCR_ALL	536600
TTM_SCR_S	519950
TTM_SCR_SS	536000
TTM_RAT_ACV	10011

