VERSION	0.00.00	1.03.00
FES_MODE	0
BPM_DEF	140.000	140.000	140.000	140.000
MET_DEF	4	4
RESOLUTION	384
CLK_DEF	384
COMPATIBLE_CODE	MA2

BPM	0	0	140.000
MET	0	0	4	4

TAP	4	288	3
TAP	4	288	4
HLD	5	0	1	96
HLD	5	96	2	96
TAP	5	192	3
TAP	5	288	2
TAP	5	288	4
HLD	6	0	6	96
HLD	6	96	5	96
TAP	6	192	4
TAP	6	288	3
TAP	6	288	5
TAP	7	0	1
TAP	7	0	3
TAP	7	96	4
TAP	7	96	6
TAP	7	192	2
TAP	7	192	5
TAP	7	288	0
TAP	7	288	7
STR	8	0	1
SI_	8	0	1	96	48	5
STR	8	0	6
SI_	8	0	6	96	48	2
TAP	8	288	3
TAP	8	288	4
HLD	9	0	1	96
TAP	9	0	5
HLD	9	96	0	96
TAP	9	192	4
TAP	9	288	3
TAP	9	288	7
TAP	10	0	2
HLD	10	0	6	96
HLD	10	96	7	96
TAP	10	192	3
TAP	10	288	0
TAP	10	288	4
TAP	11	0	1
TAP	11	96	0
TAP	11	96	1
TAP	11	192	6
TAP	11	288	6
TAP	11	288	7
TAP	12	0	0
TAP	12	0	7
TAP	12	96	0
TAP	12	96	7
TAP	12	144	1
TAP	12	144	6
STR	13	0	1
SXL	13	0	1	96	48	3
TAP	13	96	7
TAP	13	144	7
TAP	13	240	0
TAP	13	240	5
STR	14	0	6
SXR	14	0	6	96	48	4
TAP	14	96	0
TAP	14	144	0
TAP	14	240	2
TAP	14	240	7
STR	15	0	0
SSL	15	0	0	96	96	4
TAP	15	96	5
TAP	15	144	5
TAP	15	240	1
TAP	15	240	6
STR	16	0	1
SI_	16	0	1	96	48	4
STR	16	96	6
SI_	16	96	6	96	48	3
BRK	16	192	0
STR	17	0	5
SXL	17	0	5	96	48	7
TAP	17	96	3
TAP	17	144	3
TAP	17	240	1
TAP	17	240	4
STR	18	0	2
SXR	18	0	2	96	48	0
TAP	18	96	4
TAP	18	144	4
TAP	18	240	3
TAP	18	240	6
STR	19	0	7
SSR	19	0	7	96	96	3
TAP	19	96	2
TAP	19	144	2
TAP	19	240	1
TAP	19	240	6
STR	20	0	4
SF_	20	0	4	96	96	0
TAP	20	288	2
TAP	20	336	3
STR	21	0	2
SI_	21	0	2	96	48	7
STR	21	96	6
SI_	21	96	6	96	48	3
STR	21	192	0
SI_	21	192	0	96	48	5
TAP	21	288	4
TAP	22	0	4
TAP	22	48	3
TAP	22	96	2
TAP	22	144	1
STR	22	192	0
SI_	22	192	0	96	48	4
TAP	22	288	7
STR	23	0	6
SI_	23	0	6	96	48	3
TAP	23	48	6
STR	23	96	1
SI_	23	96	1	96	48	4
TAP	23	144	1
STR	23	192	7
SI_	23	192	7	96	48	3
TAP	23	240	7
STR	23	288	0
SI_	23	288	0	96	48	4
TAP	23	336	0
STR	24	0	6
SI_	24	0	6	96	48	2
TAP	24	48	6
STR	24	96	1
SI_	24	96	1	96	48	5
TAP	24	144	1
TAP	24	192	6
TAP	24	288	0
TAP	24	288	7
STR	25	0	5
SI_	25	0	5	96	48	0
STR	25	96	1
SI_	25	96	1	96	48	4
STR	25	192	7
SI_	25	192	7	96	48	2
TAP	25	288	3
TAP	26	0	3
TAP	26	48	4
TAP	26	96	5
TAP	26	144	6
STR	26	192	7
SI_	26	192	7	96	48	3
TAP	26	288	0
STR	27	0	1
SI_	27	0	1	96	48	4
TAP	27	48	1
STR	27	96	6
SI_	27	96	6	96	48	3
TAP	27	144	6
STR	27	192	0
SI_	27	192	0	96	48	4
TAP	27	240	0
STR	27	288	7
SI_	27	288	7	96	48	3
TAP	27	336	7
STR	28	0	1
SI_	28	0	1	96	48	5
TAP	28	48	1
STR	28	96	6
SI_	28	96	6	96	48	2
TAP	28	144	6
TAP	28	192	1
TAP	28	288	0
TAP	28	288	7
TAP	29	0	5
TAP	29	48	4
TAP	29	48	5
TAP	29	96	2
TAP	29	144	2
TAP	29	144	3
TAP	29	192	7
TAP	29	240	7
TAP	29	288	0
TAP	29	288	6
TAP	30	0	2
TAP	30	48	2
TAP	30	48	3
TAP	30	96	5
TAP	30	144	4
TAP	30	144	5
TAP	30	192	0
TAP	30	240	0
TAP	30	288	1
TAP	30	288	7
TAP	31	0	5
TAP	31	48	4
TAP	31	48	5
TAP	31	96	2
TAP	31	144	2
TAP	31	144	3
STR	31	192	1
SI_	31	192	1	96	48	5
TAP	31	192	4
TAP	31	288	6
HLD	31	336	6	96
TAP	32	48	7
TAP	32	96	6
TAP	32	144	7
TAP	32	192	6
TAP	32	288	1
TAP	32	288	4
BRK	33	0	7
BRK	33	96	2
TAP	33	192	5
TAP	33	240	5
TAP	33	288	5
TAP	33	336	5
TAP	34	0	4
TAP	34	0	6
TAP	34	48	0
TAP	34	48	7
TAP	34	96	1
TAP	34	96	3
TAP	34	192	2
TAP	34	240	2
TAP	34	288	2
TAP	34	336	2
HLD	35	0	0	48
HLD	35	0	1	48
HLD	35	72	0	48
HLD	35	72	1	48
HLD	35	144	6	48
HLD	35	144	7	48
HLD	35	216	6	48
HLD	35	216	7	48
TAP	35	288	5
TAP	35	336	5
TAP	36	0	4
TAP	36	48	4
TAP	36	96	4
TAP	36	144	3
TAP	36	192	3
TAP	36	240	3
TAP	36	288	2
TAP	36	288	5
STR	37	0	1
SLR	37	0	1	96	96	5
TAP	37	192	0
TAP	37	288	7
STR	38	0	6
SLL	38	0	6	96	96	2
TAP	38	192	7
TAP	38	288	0
STR	39	0	1
SI_	39	0	1	96	48	4
STR	39	192	6
SI_	39	192	6	96	48	3
STR	40	0	2
SI_	40	0	2	96	48	7
STR	40	0	5
SI_	40	0	5	96	48	0
TAP	40	192	1
TAP	40	192	6
HLD	41	0	5	96
HLD	41	96	7	96
HLD	41	192	0	96
HLD	41	288	2	96
TAP	42	0	5
TAP	42	96	3
TAP	42	144	4
TAP	42	192	3
TAP	43	0	5
TAP	43	48	5
TAP	43	96	0
TAP	43	144	0
TAP	43	192	7
TAP	43	240	7
TAP	43	288	2
TAP	43	336	2
TAP	44	0	4
TAP	44	48	4
TAP	44	96	3
TAP	44	144	3
TAP	44	192	2
TAP	44	192	5
TAP	44	288	0
TAP	44	288	7
STR	45	0	5
SI_	45	0	5	96	48	2
TAP	45	0	7
STR	45	96	1
SI_	45	96	1	96	48	6
STR	45	192	4
SI_	45	192	4	96	24	7
TAP	45	288	3
TAP	46	0	0
TAP	46	0	7
TAP	46	48	2
TAP	46	96	0
TAP	46	96	7
TAP	46	144	5
STR	46	192	0
SI_	46	192	0	96	48	3
STR	46	192	7
SI_	46	192	7	96	48	4
STR	47	0	1
SI_	47	0	1	96	48	5
TAP	47	48	1
STR	47	96	6
SI_	47	96	6	96	48	2
TAP	47	144	6
STR	47	192	0
SI_	47	192	0	96	48	4
TAP	47	240	0
STR	47	288	7
SI_	47	288	7	96	48	3
TAP	47	336	7
STR	48	0	1
SI_	48	0	1	96	48	5
TAP	48	48	1
STR	48	96	6
SI_	48	96	6	96	48	2
TAP	48	144	6
TAP	48	192	1
TAP	48	288	0
TAP	48	288	2
TAP	48	336	1
TAP	49	0	0
STR	49	0	2
SI_	49	0	2	96	48	5
STR	49	96	6
SI_	49	96	6	96	48	1
STR	49	192	3
SI_	49	192	3	96	48	0
TAP	49	288	4
TAP	50	0	0
TAP	50	0	7
TAP	50	48	5
TAP	50	96	0
TAP	50	96	7
TAP	50	144	2
STR	50	192	0
SI_	50	192	0	96	48	4
STR	50	192	7
SI_	50	192	7	96	48	5
STR	51	0	1
SI_	51	0	1	96	48	6
TAP	51	48	1
STR	51	96	5
SI_	51	96	5	96	48	2
TAP	51	144	5
STR	51	192	1
SI_	51	192	1	96	48	6
TAP	51	240	1
STR	51	288	5
SI_	51	288	5	96	48	2
TAP	51	336	5
STR	52	0	1
SI_	52	0	1	96	48	4
TAP	52	48	1
STR	52	96	5
SI_	52	96	5	96	48	0
TAP	52	144	5
TAP	52	192	2
TAP	52	288	5
TAP	52	288	7
TAP	52	336	6
STR	53	0	5
SI_	53	0	5	96	48	2
TAP	53	0	7
STR	53	96	1
SI_	53	96	1	96	48	6
STR	53	192	4
SI_	53	192	4	96	48	7
TAP	53	288	3
TAP	54	0	0
TAP	54	0	7
TAP	54	48	2
TAP	54	96	0
TAP	54	96	7
TAP	54	144	5
STR	54	192	0
SI_	54	192	0	96	48	2
STR	54	192	7
SI_	54	192	7	96	48	3
STR	55	0	6
SI_	55	0	6	96	48	1
TAP	55	48	6
STR	55	96	2
SI_	55	96	2	96	48	5
TAP	55	144	2
STR	55	192	6
SI_	55	192	6	96	48	1
TAP	55	240	6
STR	55	288	2
SI_	55	288	2	96	48	5
TAP	55	336	2
STR	56	0	6
SI_	56	0	6	96	48	3
TAP	56	48	6
STR	56	96	2
SI_	56	96	2	96	48	7
TAP	56	144	2
TAP	56	192	5
TAP	56	288	1
TAP	56	288	6
TAP	57	0	2
TAP	57	48	2
TAP	57	48	3
TAP	57	96	5
TAP	57	144	4
TAP	57	144	5
TAP	57	192	0
TAP	57	240	0
TAP	57	288	1
TAP	57	288	7
TAP	58	0	5
TAP	58	48	4
TAP	58	48	5
TAP	58	96	2
TAP	58	144	2
TAP	58	144	3
TAP	58	192	7
TAP	58	240	7
TAP	58	288	0
TAP	58	288	6
TAP	59	0	2
TAP	59	48	2
TAP	59	48	3
TAP	59	96	5
TAP	59	144	4
TAP	59	144	5
TAP	59	192	3
STR	59	192	6
SI_	59	192	6	96	48	2
TAP	59	288	1
HLD	59	336	1	96
TAP	60	48	0
TAP	60	96	1
TAP	60	144	0
TAP	60	192	1
TAP	60	288	3
TAP	60	288	6
TAP	61	0	0
TAP	61	48	2
TAP	61	48	3
TAP	61	96	7
TAP	61	144	4
TAP	61	144	5
TAP	61	192	0
TAP	61	240	1
TAP	61	240	7
TAP	61	288	2
TAP	61	288	6
TAP	62	0	7
TAP	62	48	4
TAP	62	48	5
TAP	62	96	0
TAP	62	144	2
TAP	62	144	3
TAP	62	192	7
TAP	62	240	0
TAP	62	240	6
TAP	62	288	1
TAP	62	288	5
TAP	63	0	3
TAP	63	0	4
TAP	63	48	2
TAP	63	48	3
TAP	63	96	3
TAP	63	96	4
TAP	63	144	4
TAP	63	144	5
HLD	63	192	3	96
HLD	63	192	4	96
BRK	63	336	1
BRK	63	336	6
TAP	64	48	3
TAP	64	96	4
TAP	64	144	3
TAP	64	192	4
HLD	65	0	6	96
TAP	65	96	7
TAP	65	144	6
TAP	65	192	3
TAP	65	240	4
TAP	65	288	3
HLD	66	0	1	96
TAP	66	96	0
TAP	66	144	1
TAP	66	192	4
TAP	66	240	3
TAP	66	288	4
HLD	67	0	6	96
TAP	67	96	7
TAP	67	144	6
TAP	67	192	3
TAP	67	240	4
TAP	67	288	3
TAP	68	0	1
TAP	68	48	0
TAP	68	96	1
TAP	68	144	0
TAP	68	192	3
TAP	68	240	4
TAP	68	288	2
TAP	68	288	5
HLD	69	0	1	96
TAP	69	96	0
TAP	69	144	1
STR	69	192	4
SI_	69	192	4	96	48	0
TAP	69	240	3
TAP	69	288	3
HLD	70	0	6	96
TAP	70	96	7
TAP	70	144	6
STR	70	192	3
SI_	70	192	3	96	48	7
TAP	70	240	4
TAP	70	288	4
HLD	71	0	1	96
TAP	71	96	0
TAP	71	144	1
STR	71	192	4
SI_	71	192	4	96	48	0
TAP	71	240	3
TAP	71	288	3
TAP	72	0	6
TAP	72	48	7
TAP	72	96	6
TAP	72	144	7
TAP	72	192	4
TAP	72	240	3
TAP	72	288	2
TAP	72	288	5
STR	73	0	6
SI_	73	0	6	96	48	3
STR	73	192	1
SI_	73	192	1	96	48	4
STR	74	0	7
SI_	74	0	7	96	48	2
STR	74	192	0
SF_	74	192	0	96	96	4

T_REC_TAP	342
T_REC_BRK	5
T_REC_XTP	0
T_REC_HLD	30
T_REC_XHO	0
T_REC_STR	79
T_REC_BST	0
T_REC_XST	0
T_REC_TTP	0
T_REC_THO	0
T_REC_SLD	79
T_REC_ALL	535
T_NUM_TAP	421
T_NUM_BRK	5
T_NUM_HLD	30
T_NUM_SLD	79
T_NUM_ALL	535
T_JUDGE_TAP	426
T_JUDGE_HLD	52
T_JUDGE_SLD	79
T_JUDGE_ALL	557
TTM_EACHPAIRS	89
TTM_SCR_TAP	210500
TTM_SCR_BRK	13000
TTM_SCR_HLD	30000
TTM_SCR_SLD	118500
TTM_SCR_ALL	372000
TTM_SCR_S	360400
TTM_SCR_SS	371500
TTM_RAT_ACV	10013

