VERSION	0.00.00	1.03.00
FES_MODE	0
BPM_DEF	140.000	140.000	140.000	140.000
MET_DEF	4	4
RESOLUTION	384
CLK_DEF	384
COMPATIBLE_CODE	MA2

BPM	0	0	140.000
MET	0	0	4	4

HLD	1	0	2	192
HLD	1	192	3	192
HLD	2	0	4	192
TAP	2	192	5
HLD	3	0	6	192
HLD	3	192	4	192
HLD	4	0	3	192
TAP	4	192	1
TAP	5	0	2
TAP	5	96	3
TAP	5	192	2
TAP	5	288	1
TAP	5	288	4
TAP	6	0	5
TAP	6	96	4
TAP	6	192	3
TAP	6	192	6
TAP	7	0	4
TAP	7	0	5
TAP	7	96	3
TAP	7	96	4
HLD	7	192	2	96
HLD	7	192	3	96
TAP	8	0	2
TAP	8	0	3
TAP	8	96	3
TAP	8	96	4
HLD	8	192	4	96
HLD	8	192	5	96
TAP	9	0	5
TAP	9	96	4
TAP	9	192	5
TAP	9	288	3
TAP	9	288	6
TAP	10	0	2
TAP	10	96	3
TAP	10	192	1
TAP	10	192	4
TAP	11	0	1
TAP	11	0	3
TAP	11	96	3
TAP	11	96	4
HLD	11	192	4	96
HLD	11	192	6	96
TAP	12	0	4
TAP	12	0	6
TAP	12	96	3
TAP	12	96	4
HLD	12	192	1	96
HLD	12	192	3	96
TAP	13	0	2
TAP	13	0	3
STR	13	96	2
SI_	13	96	2	96	96	7
STR	13	96	3
SI_	13	96	3	96	96	6
TAP	14	0	4
TAP	14	0	5
STR	14	96	4
SI_	14	96	4	96	96	1
STR	14	96	5
SI_	14	96	5	96	96	0
TAP	15	0	6
TAP	15	0	7
STR	15	96	6
SI_	15	96	6	96	96	3
STR	15	96	7
SI_	15	96	7	96	96	2
TAP	16	0	0
TAP	16	0	1
STR	16	96	2
SI_	16	96	2	96	48	0
STR	16	96	7
SI_	16	96	7	96	48	5
TAP	17	0	4
TAP	17	0	5
STR	17	96	4
SCL	17	96	4	96	96	1
STR	17	96	5
SCR	17	96	5	96	96	0
TAP	18	0	2
TAP	18	0	3
STR	18	96	2
SCL	18	96	2	96	96	7
STR	18	96	3
SCR	18	96	3	96	96	6
TAP	19	0	0
TAP	19	0	7
TAP	19	96	1
TAP	19	96	6
TAP	19	192	2
TAP	19	192	5
STR	19	288	3
SXR	19	288	3	96	192	2
STR	19	288	4
SXL	19	288	4	96	192	5
TAP	20	288	1
TAP	20	288	6
TAP	21	0	3
TAP	21	0	4
TAP	21	96	1
TAP	21	96	3
TAP	21	192	3
TAP	21	192	4
TAP	21	288	4
TAP	21	288	6
TAP	22	0	2
TAP	22	48	2
TAP	22	96	3
TAP	22	192	1
TAP	22	192	4
TAP	23	0	3
TAP	23	96	2
TAP	23	96	4
TAP	23	192	1
TAP	23	288	0
TAP	23	288	2
TAP	24	0	7
TAP	24	96	0
TAP	24	96	6
STR	24	192	5
SI_	24	192	5	96	48	3
STR	24	192	7
SI_	24	192	7	96	48	1
TAP	25	0	3
TAP	25	0	4
TAP	25	96	4
TAP	25	96	6
TAP	25	192	3
TAP	25	192	4
TAP	25	288	1
TAP	25	288	3
TAP	26	0	5
TAP	26	48	5
TAP	26	96	4
TAP	26	192	3
TAP	26	192	6
TAP	26	288	1
TAP	26	288	4
TAP	27	0	5
TAP	27	96	4
TAP	27	96	6
TAP	27	192	7
TAP	27	288	0
TAP	27	288	6
TAP	28	0	1
TAP	28	96	0
TAP	28	96	2
STR	28	192	1
SI_	28	192	1	96	48	7
STR	28	192	3
SI_	28	192	3	96	48	5
TAP	29	0	6
TAP	29	96	5
TAP	29	96	7
TAP	29	192	4
TAP	29	240	4
TAP	29	288	3
TAP	30	0	1
TAP	30	96	0
TAP	30	96	2
TAP	30	192	3
TAP	30	240	3
TAP	30	288	4
TAP	31	0	2
TAP	31	0	3
STR	31	96	0
SCR	31	96	0	96	96	3
STR	31	96	7
SUR	31	96	7	96	96	4
TAP	32	0	4
TAP	32	0	5
STR	32	96	0
SUL	32	96	0	96	96	3
STR	32	96	7
SCL	32	96	7	96	96	4
TAP	33	0	2
TAP	33	0	3
TAP	33	96	0
TAP	33	96	7
TAP	33	192	4
TAP	33	192	5
TAP	33	288	0
TAP	33	288	7
TAP	34	0	1
TAP	34	0	3
TAP	34	96	0
TAP	34	96	7
TAP	34	192	4
TAP	34	192	6
TAP	34	288	0
TAP	34	288	7
TAP	35	0	1
STR	35	0	3
SI_	35	0	3	96	48	6
STR	35	192	0
SI_	35	192	0	96	48	3
STR	36	0	5
SI_	36	0	5	96	48	0
TAP	36	192	2
TAP	36	288	3
TAP	36	288	4
HLD	37	0	5	384
HLD	38	0	4	384
HLD	39	0	3	384
HLD	40	0	2	192
TAP	40	192	3
TAP	40	288	4
TAP	40	288	5
TAP	41	0	3
TAP	41	0	4
TAP	41	96	2
TAP	41	192	3
TAP	41	192	4
TAP	41	288	5
TAP	42	0	3
TAP	42	0	4
TAP	42	96	1
TAP	42	192	3
TAP	42	192	4
TAP	42	288	6
TAP	43	0	3
TAP	43	0	4
TAP	43	96	0
TAP	43	192	3
TAP	43	192	4
TAP	43	288	7
TAP	44	0	3
TAP	44	0	4
TAP	44	96	2
TAP	44	96	5
STR	44	192	1
SI_	44	192	1	96	48	3
STR	44	192	6
SI_	44	192	6	96	48	4
TAP	45	0	3
TAP	45	0	4
TAP	45	96	0
TAP	45	96	2
TAP	45	192	3
TAP	45	192	4
TAP	45	288	5
TAP	45	288	7
TAP	46	0	2
TAP	46	48	2
TAP	46	96	3
TAP	46	192	1
TAP	46	192	4
TAP	46	288	3
TAP	46	288	6
TAP	47	0	2
TAP	47	96	1
TAP	47	96	3
TAP	47	192	0
TAP	47	288	1
TAP	47	288	7
TAP	48	0	6
TAP	48	96	5
TAP	48	96	7
STR	48	192	4
SI_	48	192	4	96	48	2
STR	48	192	6
SI_	48	192	6	96	48	0
TAP	49	0	0
TAP	49	0	7
TAP	49	96	5
TAP	49	96	7
TAP	49	192	0
TAP	49	192	7
TAP	49	288	0
TAP	49	288	2
TAP	50	0	6
TAP	50	48	6
TAP	50	96	7
TAP	50	192	0
TAP	50	192	5
TAP	51	0	7
TAP	51	96	0
TAP	51	96	6
TAP	51	192	5
TAP	51	288	4
TAP	51	288	6
TAP	52	0	3
TAP	52	48	3
TAP	52	96	2
TAP	52	96	4
STR	52	192	1
SI_	52	192	1	96	48	7
STR	52	192	3
SI_	52	192	3	96	48	5
TAP	53	0	0
TAP	53	0	7
TAP	53	96	0
TAP	53	96	2
TAP	53	192	0
TAP	53	192	7
TAP	53	288	5
TAP	53	288	7
TAP	54	0	1
TAP	54	48	1
TAP	54	96	0
TAP	54	192	2
TAP	54	192	7
TAP	54	288	0
TAP	54	288	5
TAP	55	0	1
TAP	55	96	0
TAP	55	96	2
TAP	55	192	3
TAP	55	288	2
TAP	55	288	4
TAP	56	0	5
TAP	56	48	5
TAP	56	96	4
TAP	56	96	6
STR	56	192	5
SI_	56	192	5	96	48	3
STR	56	192	7
SI_	56	192	7	96	48	1
TAP	57	0	2
TAP	57	96	1
TAP	57	96	3
TAP	57	192	0
TAP	57	240	0
TAP	57	288	7
TAP	58	0	5
TAP	58	96	4
TAP	58	96	6
TAP	58	192	7
TAP	58	240	7
TAP	58	288	0
TAP	59	0	6
TAP	59	0	7
STR	59	96	3
SUR	59	96	3	96	96	0
STR	59	96	4
SCR	59	96	4	96	96	7
TAP	60	0	0
TAP	60	0	1
STR	60	96	3
SCL	60	96	3	96	96	0
STR	60	96	4
SUL	60	96	4	96	96	7
TAP	61	0	4
TAP	61	0	5
TAP	61	96	3
TAP	61	96	6
TAP	61	192	7
TAP	61	240	7
TAP	61	288	0
TAP	62	0	2
TAP	62	0	3
TAP	62	96	1
TAP	62	96	4
TAP	62	192	0
TAP	62	240	0
TAP	62	288	7
TAP	63	0	1
TAP	63	0	6
STR	63	96	3
SCL	63	96	3	96	96	0
STR	63	96	4
SCR	63	96	4	96	96	7
BRK	64	0	0
BRK	64	0	7
TAP	65	0	2
TAP	65	0	3
TAP	65	96	4
TAP	65	96	5
TAP	65	192	2
TAP	65	240	2
TAP	65	288	3
TAP	66	0	4
TAP	66	0	5
TAP	66	96	2
TAP	66	96	3
TAP	66	192	5
TAP	66	240	5
TAP	66	288	4
TAP	67	0	2
TAP	67	0	3
TAP	67	96	4
TAP	67	96	6
TAP	67	192	1
TAP	67	240	1
TAP	67	288	3
TAP	68	0	4
TAP	68	0	5
TAP	68	96	1
TAP	68	96	3
TAP	68	192	6
TAP	68	240	6
TAP	68	288	4
TAP	69	0	2
TAP	69	0	3
TAP	69	96	5
TAP	69	96	7
TAP	69	192	0
TAP	69	240	0
TAP	69	288	2
TAP	70	0	4
TAP	70	0	5
TAP	70	96	0
TAP	70	96	2
TAP	70	192	7
TAP	70	240	7
TAP	70	288	5
TAP	71	0	2
TAP	71	0	3
TAP	71	96	6
TAP	71	96	7
TAP	71	192	0
TAP	71	240	0
TAP	71	288	1
TAP	72	0	4
TAP	72	0	5
TAP	72	96	0
TAP	72	96	1
TAP	72	192	7
TAP	72	240	7
TAP	72	288	6
HLD	73	0	5	192
HLD	73	192	4	192
HLD	74	0	3	192
STR	74	192	2
SCR	74	192	2	96	96	5

T_REC_TAP	323
T_REC_BRK	2
T_REC_XTP	0
T_REC_HLD	21
T_REC_XHO	0
T_REC_STR	40
T_REC_BST	0
T_REC_XST	0
T_REC_TTP	0
T_REC_THO	0
T_REC_SLD	40
T_REC_ALL	426
T_NUM_TAP	363
T_NUM_BRK	2
T_NUM_HLD	21
T_NUM_SLD	40
T_NUM_ALL	426
T_JUDGE_TAP	365
T_JUDGE_HLD	80
T_JUDGE_SLD	40
T_JUDGE_ALL	485
TTM_EACHPAIRS	136
TTM_SCR_TAP	181500
TTM_SCR_BRK	5200
TTM_SCR_HLD	21000
TTM_SCR_SLD	60000
TTM_SCR_ALL	267700
TTM_SCR_S	259500
TTM_SCR_SS	267500
TTM_RAT_ACV	10007

