VERSION	0.00.00	1.03.00
FES_MODE	0
BPM_DEF	140.000	140.000	140.000	140.000
MET_DEF	4	4
RESOLUTION	384
CLK_DEF	384
COMPATIBLE_CODE	MA2

BPM	0	0	140.000
MET	0	0	4	4

TAP	1	0	1
TAP	2	0	1
TAP	3	0	2
TAP	4	0	2
TAP	5	0	3
TAP	6	0	3
TAP	7	0	4
TAP	8	0	4
TAP	9	0	5
TAP	10	0	5
TAP	11	0	6
TAP	12	0	6
TAP	13	0	6
TAP	13	0	7
TAP	14	0	6
TAP	14	0	7
TAP	15	0	4
TAP	15	0	5
TAP	16	0	4
TAP	16	0	5
TAP	17	0	2
TAP	17	0	3
TAP	18	0	2
TAP	18	0	3
TAP	19	0	0
TAP	19	0	1
TAP	20	0	0
TAP	20	0	1
TAP	21	0	0
TAP	21	96	0
TAP	21	192	0
TAP	22	0	1
TAP	22	96	1
TAP	22	192	1
TAP	23	0	2
TAP	23	96	2
TAP	23	192	2
TAP	24	0	3
TAP	24	96	3
TAP	24	192	3
TAP	24	192	4
TAP	25	0	4
TAP	25	96	4
TAP	25	192	4
TAP	26	0	5
TAP	26	96	5
TAP	26	192	5
TAP	27	0	6
TAP	27	96	6
TAP	27	192	6
TAP	28	0	7
TAP	28	96	7
TAP	28	192	0
TAP	28	192	7
HLD	29	0	6	192
HLD	30	0	5	192
HLD	31	0	4	192
TAP	32	0	3
TAP	32	96	4
TAP	32	192	3
HLD	33	0	2	192
HLD	34	0	1	192
HLD	35	0	0	192
TAP	36	0	7
TAP	36	96	0
TAP	36	192	7
STR	37	0	0
SI_	37	0	0	96	288	3
STR	39	0	7
SI_	39	0	7	96	288	4
TAP	41	0	0
TAP	41	192	0
TAP	42	0	1
TAP	42	96	1
TAP	42	192	1
TAP	43	0	2
TAP	43	192	2
TAP	44	0	3
TAP	44	96	3
TAP	44	192	3
TAP	45	0	4
TAP	45	192	4
TAP	46	0	5
TAP	46	96	5
TAP	46	192	5
TAP	47	0	6
TAP	47	192	6
HLD	48	0	0	192
HLD	48	0	7	192
TAP	49	0	7
TAP	49	96	7
TAP	49	192	6
TAP	49	288	6
TAP	50	0	5
TAP	50	96	5
TAP	50	192	3
TAP	50	192	4
TAP	51	0	3
TAP	51	96	3
TAP	51	192	2
TAP	51	288	2
TAP	52	0	1
TAP	52	96	1
TAP	52	192	0
TAP	52	192	7
TAP	53	0	0
TAP	53	96	0
TAP	53	192	1
TAP	53	288	1
TAP	54	0	2
TAP	54	96	2
TAP	54	192	3
TAP	54	192	4
TAP	55	0	4
TAP	55	96	4
TAP	55	192	5
TAP	55	288	5
TAP	56	0	6
TAP	56	96	6
TAP	56	192	0
TAP	56	192	7
TAP	57	0	7
TAP	57	96	7
TAP	57	192	6
TAP	57	288	6
TAP	58	0	5
TAP	58	96	5
TAP	58	192	4
TAP	58	288	4
TAP	59	0	3
TAP	59	96	3
TAP	59	192	2
TAP	59	288	2
TAP	60	0	1
TAP	60	96	1
TAP	60	192	0
TAP	60	192	7
TAP	61	0	0
TAP	61	96	0
TAP	61	192	1
TAP	61	288	1
TAP	62	0	2
TAP	62	96	2
TAP	62	192	3
TAP	62	288	3
TAP	63	0	4
TAP	63	96	4
TAP	63	192	5
TAP	63	288	5
TAP	64	0	6
TAP	64	96	6
BRK	64	192	0
BRK	64	192	7
STR	65	0	0
SI_	65	0	0	96	288	3
STR	67	0	7
SI_	67	0	7	96	288	4
STR	69	0	1
SI_	69	0	1	96	288	4
STR	71	0	6
SI_	71	0	6	96	288	3
HLD	73	0	2	768
HLD	73	0	5	768

T_REC_TAP	139
T_REC_BRK	2
T_REC_XTP	0
T_REC_HLD	10
T_REC_XHO	0
T_REC_STR	6
T_REC_BST	0
T_REC_XST	0
T_REC_TTP	0
T_REC_THO	0
T_REC_SLD	6
T_REC_ALL	163
T_NUM_TAP	145
T_NUM_BRK	2
T_NUM_HLD	10
T_NUM_SLD	6
T_NUM_ALL	163
T_JUDGE_TAP	147
T_JUDGE_HLD	64
T_JUDGE_SLD	6
T_JUDGE_ALL	217
TTM_EACHPAIRS	18
TTM_SCR_TAP	72500
TTM_SCR_BRK	5200
TTM_SCR_HLD	10000
TTM_SCR_SLD	9000
TTM_SCR_ALL	96700
TTM_SCR_S	93650
TTM_SCR_SS	96500
TTM_RAT_ACV	10020

