VERSION	0.00.00	1.03.00
FES_MODE	0
BPM_DEF	150.000	150.000	150.000	150.000
MET_DEF	4	4
RESOLUTION	384
CLK_DEF	384
COMPATIBLE_CODE	MA2

BPM	0	0	150.000
MET	0	0	4	4

TAP	2	48	2
TAP	2	96	3
TAP	2	144	4
TAP	2	192	5
TAP	2	240	4
TAP	2	288	2
TAP	2	336	3
TAP	3	0	4
TAP	3	0	6
TAP	3	48	5
TAP	3	96	1
TAP	3	96	3
TAP	3	144	2
TAP	3	192	4
STR	3	192	6
SI_	3	192	6	96	48	2
BRK	3	288	6
TAP	4	0	2
TAP	4	24	3
TAP	4	48	2
TAP	4	72	3
TAP	4	96	2
TAP	4	144	1
TAP	4	144	4
HLD	4	192	2	96
TAP	4	240	0
HLD	4	288	4	96
TAP	4	336	0
HLD	5	0	2	48
TAP	5	48	0
TAP	5	72	2
TAP	5	96	7
TAP	5	120	3
TAP	5	144	6
TAP	5	168	4
TAP	5	192	5
TAP	5	240	6
TAP	5	240	7
TAP	5	288	0
TAP	5	288	1
TAP	5	336	2
TAP	6	0	5
TAP	6	24	4
TAP	6	48	5
TAP	6	72	4
TAP	6	96	5
TAP	6	144	3
TAP	6	144	6
HLD	6	192	5	96
TAP	6	240	7
HLD	6	288	3	96
TAP	6	336	7
HLD	7	0	4	96
TAP	7	48	7
HLD	7	96	2	96
TAP	7	144	7
HLD	7	192	3	96
TAP	7	240	7
HLD	7	288	1	48
TAP	7	336	7
TAP	8	0	0
TAP	8	0	6
TAP	8	48	2
TAP	8	72	3
TAP	8	96	2
TAP	8	144	5
TAP	8	168	4
TAP	8	192	5
TAP	8	240	1
TAP	8	264	3
TAP	8	288	2
TAP	8	336	6
TAP	8	360	4
TAP	9	0	5
TAP	9	48	0
TAP	9	72	3
TAP	9	96	2
TAP	9	144	7
TAP	9	168	4
TAP	9	192	5
TAP	9	240	0
TAP	9	264	7
TAP	9	288	0
TAP	9	336	2
TAP	9	336	5
TAP	10	0	0
TAP	10	0	7
TAP	10	48	6
TAP	10	72	7
TAP	10	96	6
TAP	10	144	1
TAP	10	168	0
TAP	10	192	1
TAP	10	240	7
TAP	10	264	0
TAP	10	288	7
TAP	10	312	1
TAP	10	336	6
TAP	10	360	2
HLD	11	0	5	48
TAP	11	48	7
TAP	11	72	5
TAP	11	96	0
TAP	11	120	4
TAP	11	144	1
TAP	11	168	3
TAP	11	192	2
TAP	11	240	0
TAP	11	240	1
TAP	11	288	6
TAP	11	288	7
TAP	12	0	3
TAP	12	0	4
TAP	12	48	2
TAP	12	72	3
TAP	12	96	2
TAP	12	144	1
TAP	12	144	4
TAP	12	192	0
TAP	12	240	7
TAP	12	288	6
TAP	12	336	5
STR	13	0	4
SI_	13	0	4	96	48	1
TAP	13	48	3
STR	13	96	2
SI_	13	96	2	96	48	6
TAP	13	144	2
STR	13	192	7
SI_	13	192	7	96	48	3
TAP	13	288	0
TAP	14	0	3
TAP	14	0	4
TAP	14	48	1
TAP	14	96	2
TAP	14	144	3
TAP	14	192	0
TAP	14	192	4
TAP	14	240	6
TAP	14	288	5
TAP	14	336	4
TAP	15	0	3
TAP	15	0	7
TAP	15	48	0
TAP	15	96	1
TAP	15	96	5
TAP	15	144	2
TAP	15	192	3
TAP	15	192	7
TAP	15	240	5
TAP	15	264	4
TAP	15	288	5
TAP	15	336	3
TAP	15	336	6
TAP	16	0	7
TAP	16	48	1
TAP	16	72	0
TAP	16	96	1
TAP	16	144	2
TAP	16	144	7
TAP	16	192	6
TAP	16	240	7
TAP	16	288	6
TAP	16	336	0
TAP	16	336	5
STR	17	0	2
SLR	17	0	2	96	48	7
STR	17	0	3
SCR	17	0	3	96	48	6
STR	17	192	4
SCL	17	192	4	96	48	1
STR	17	192	5
SLL	17	192	5	96	48	0
TAP	18	0	3
TAP	18	0	4
TAP	18	48	6
TAP	18	96	5
TAP	18	144	4
TAP	18	192	3
TAP	18	192	7
TAP	18	240	1
TAP	18	288	2
TAP	18	336	3
TAP	19	0	0
TAP	19	0	4
TAP	19	48	7
TAP	19	96	2
TAP	19	96	6
TAP	19	144	5
TAP	19	192	0
TAP	19	192	4
TAP	19	240	6
TAP	19	264	7
STR	19	288	6
SI_	19	288	6	96	48	1
STR	20	0	2
SI_	20	0	2	96	48	5
TAP	20	96	6
TAP	20	192	0
TAP	20	216	7
TAP	20	240	0
TAP	20	264	7
TAP	20	288	0
TAP	21	48	0
TAP	21	48	1
TAP	21	96	2
TAP	21	144	0
TAP	21	144	2
TAP	21	192	3
TAP	21	240	6
TAP	21	240	7
TAP	21	288	5
TAP	21	336	5
TAP	21	336	7
TAP	22	0	4
TAP	22	48	0
TAP	22	48	1
TAP	22	96	2
TAP	22	144	0
TAP	22	144	2
TAP	22	192	3
TAP	22	240	0
TAP	22	240	6
TAP	22	288	4
TAP	22	336	1
TAP	22	336	7
TAP	23	48	0
TAP	23	48	1
TAP	23	96	2
TAP	23	144	0
TAP	23	144	2
TAP	23	192	3
TAP	23	240	6
TAP	23	240	7
TAP	23	288	5
TAP	23	336	5
TAP	23	336	7
TAP	24	0	4
TAP	24	48	0
TAP	24	48	1
TAP	24	96	2
TAP	24	144	0
TAP	24	144	2
TAP	24	192	3
TAP	24	192	4
TAP	24	240	6
TAP	24	240	7
TAP	24	288	0
TAP	24	288	1
TAP	25	48	0
TAP	25	48	2
TAP	25	96	3
TAP	25	144	0
TAP	25	144	1
TAP	25	192	2
TAP	25	240	5
TAP	25	240	7
TAP	25	288	4
TAP	25	336	6
TAP	25	336	7
TAP	26	0	5
TAP	26	48	0
TAP	26	48	2
TAP	26	96	3
TAP	26	144	0
TAP	26	144	1
TAP	26	192	2
TAP	26	240	0
TAP	26	240	7
TAP	26	288	5
TAP	26	336	0
TAP	26	336	7
TAP	27	48	0
TAP	27	48	2
TAP	27	96	3
TAP	27	144	0
TAP	27	144	1
TAP	27	192	2
TAP	27	240	5
TAP	27	240	7
TAP	27	288	4
TAP	27	336	6
TAP	27	336	7
TAP	28	0	5
TAP	28	48	0
TAP	28	48	2
TAP	28	96	3
TAP	28	144	0
TAP	28	144	1
TAP	28	192	6
TAP	28	192	7
TAP	28	240	0
TAP	28	240	2
TAP	28	288	5
TAP	28	288	7
TAP	29	0	1
TAP	29	24	3
TAP	29	72	6
TAP	29	96	4
TAP	29	144	0
TAP	29	168	7
TAP	29	192	0
TAP	29	240	2
TAP	29	240	5
BRK	29	288	0
BST	29	288	7
SCL	29	288	7	96	48	4
HLD	30	0	2	96
TAP	30	96	3
STR	30	144	3
SCR	30	144	3	96	48	6
TAP	30	240	0
TAP	30	288	0
TAP	31	0	7
TAP	31	48	6
TAP	31	96	5
TAP	31	144	4
TAP	31	192	2
STR	31	192	3
SCR	31	192	3	96	48	6
STR	31	288	0
SCR	31	288	0	96	48	3
HLD	32	0	6	96
TAP	32	96	5
STR	32	144	5
SCL	32	144	5	96	48	2
TAP	32	240	7
TAP	32	288	7
TAP	33	0	0
TAP	33	48	1
TAP	33	96	2
TAP	33	144	3
STR	33	192	4
SCL	33	192	4	96	48	1
TAP	33	192	5
STR	33	288	7
SCL	33	288	7	96	48	4
HLD	34	0	0	96
TAP	34	96	1
STR	34	144	1
SCR	34	144	1	96	48	4
TAP	34	240	0
TAP	34	288	0
STR	35	0	6
SUL	35	0	6	96	144	3
STR	35	0	7
SXL	35	0	7	96	144	2
TAP	35	288	0
TAP	35	288	5
HLD	36	0	3	144
HLD	36	144	4	48
HLD	36	192	3	96
HLD	36	288	4	48
HLD	36	336	3	48
HLD	37	0	2	48
HLD	37	48	3	48
HLD	37	96	4	48
HLD	37	144	5	48
HLD	37	192	6	48
HLD	37	240	4	48
HLD	37	288	3	48
TAP	37	336	1
HLD	38	48	1	48
HLD	38	96	3	48
HLD	38	144	4	48
TAP	38	192	6
TAP	38	240	2
TAP	38	272	2
TAP	38	312	2
STR	39	8	2
SXR	39	8	2	96	184	6
HLD	39	104	2	232
TAP	39	336	6
TAP	39	360	6
TAP	40	48	3
TAP	40	48	4
TAP	40	96	3
TAP	40	96	5
TAP	40	144	3
TAP	40	144	6
TAP	40	192	3
TAP	40	192	7
TAP	40	240	2
TAP	40	240	6
TAP	40	288	1
TAP	40	288	5
TAP	40	336	0
TAP	40	336	4
TAP	41	0	1
TAP	41	0	4
TAP	41	48	2
TAP	41	48	4
TAP	41	96	3
TAP	41	96	4
TAP	41	144	2
TAP	41	144	5
STR	41	192	1
SUR	41	192	1	96	48	7
STR	41	192	6
SUL	41	192	6	96	48	0
BRK	41	288	1
BRK	41	288	6
STR	42	0	0
SI_	42	0	0	96	24	3
TAP	42	0	7
STR	42	96	0
SI_	42	96	0	96	24	4
HLD	42	96	5	48
STR	42	192	0
SCR	42	192	0	96	24	2
HLD	42	192	5	48
STR	42	288	0
SI_	42	288	0	96	24	3
HLD	42	288	5	48
STR	43	0	0
SI_	43	0	0	96	24	4
HLD	43	0	5	48
STR	43	96	0
SCL	43	96	0	96	24	5
HLD	43	96	5	48
TAP	43	192	0
TAP	43	192	5
TAP	43	288	2
TAP	43	288	5
TAP	43	336	1
TAP	43	336	6
STR	44	0	0
SI_	44	0	0	96	24	3
TAP	44	0	7
STR	44	96	0
SI_	44	96	0	96	24	4
HLD	44	96	6	48
STR	44	192	0
SCR	44	192	0	96	24	2
HLD	44	192	6	48
STR	44	288	0
SI_	44	288	0	96	24	3
HLD	44	288	6	48
STR	45	0	0
SI_	45	0	0	96	24	4
HLD	45	0	6	48
STR	45	96	0
SCL	45	96	0	96	24	5
HLD	45	96	6	48
TAP	45	192	0
TAP	45	192	6
TAP	45	288	2
TAP	45	288	5
TAP	45	336	1
TAP	45	336	6
STR	46	0	0
SI_	46	0	0	96	24	3
TAP	46	0	7
STR	46	96	0
SI_	46	96	0	96	24	4
HLD	46	96	7	48
STR	46	192	0
SCR	46	192	0	96	24	2
HLD	46	192	7	48
STR	46	288	0
SI_	46	288	0	96	24	3
HLD	46	288	7	48
STR	47	0	0
SI_	47	0	0	96	24	4
HLD	47	0	7	48
STR	47	96	0
SCL	47	96	0	96	24	5
HLD	47	96	7	48
TAP	47	192	0
TAP	47	192	7
TAP	47	288	2
TAP	47	288	5
TAP	47	336	1
TAP	47	336	6
TAP	48	0	0
TAP	48	0	7
TAP	48	48	1
TAP	48	96	6
TAP	48	96	7
TAP	48	144	2
TAP	48	192	0
TAP	48	192	7
TAP	48	240	3
STR	48	288	0
SI_	48	288	0	96	24	4
STR	48	288	1
SI_	48	288	1	96	24	5
STR	49	0	0
SCR	49	0	0	96	24	3
STR	49	0	1
SCL	49	0	1	96	24	6
STR	49	96	0
SI_	49	96	0	96	24	5
STR	49	96	1
SI_	49	96	1	96	24	4
BRK	49	192	0
BRK	49	192	1
BRK	49	288	2
BRK	49	288	7
STR	50	0	0
SLR	50	0	0	96	48	4
STR	50	0	4
SLR	50	0	4	96	48	0
TAP	50	192	0
TAP	50	192	4
TAP	50	240	3
TAP	50	240	7
TAP	50	288	2
TAP	50	288	6
TAP	50	336	1
TAP	50	336	5
TAP	51	0	0
STR	51	48	1
SI_	51	48	1	96	24	5
STR	51	96	2
SI_	51	96	2	96	24	6
STR	51	288	7
SI_	51	288	7	96	24	3
TAP	51	336	3
HLD	52	0	1	96
TAP	52	96	0
TAP	52	144	4
TAP	52	192	6
TAP	52	192	7
TAP	52	240	3
TAP	52	288	0
TAP	52	288	1
TAP	52	336	4
STR	53	0	6
SI_	53	0	6	96	24	2
TAP	53	48	0
STR	53	96	1
SI_	53	96	1	96	24	5
TAP	53	144	7
TAP	53	192	7
STR	53	288	0
SI_	53	288	0	96	24	4
TAP	53	336	4
HLD	54	0	6	96
TAP	54	96	7
TAP	54	144	3
TAP	54	192	0
TAP	54	192	2
TAP	54	240	4
TAP	54	288	5
TAP	54	288	7
TAP	54	336	3
STR	55	0	1
SI_	55	0	1	96	24	5
TAP	55	48	7
STR	55	96	6
SI_	55	96	6	96	24	2
TAP	55	144	0
TAP	55	192	0
TAP	55	288	7
TAP	55	336	6
TAP	56	0	4
TAP	56	0	5
TAP	56	48	3
TAP	56	96	0
TAP	56	144	1
TAP	56	192	2
TAP	56	192	3
TAP	56	240	7
TAP	56	288	6
STR	56	336	4
SUR	56	336	4	96	144	3
STR	56	336	5
SCR	56	336	5	96	144	2
TAP	57	288	4
TAP	57	336	3
TAP	58	0	6
TAP	58	0	7
TAP	58	48	5
TAP	58	96	4
TAP	58	144	0
TAP	58	144	1
TAP	58	192	2
TAP	58	240	3
TAP	58	288	6
TAP	58	288	7
TAP	58	336	5
TAP	59	0	3
TAP	59	0	4
TAP	59	48	1
TAP	59	72	3
TAP	59	96	2
TAP	59	144	6
TAP	59	168	4
TAP	59	192	5
TAP	59	240	0
TAP	59	264	3
TAP	59	288	2
TAP	59	336	7
TAP	59	360	4
TAP	60	0	5
TAP	60	48	2
TAP	60	48	3
TAP	60	96	4
TAP	60	96	6
TAP	60	120	4
TAP	60	120	6
TAP	60	168	1
TAP	60	168	3
TAP	60	192	1
STR	60	192	3
SI_	60	192	3	96	48	7
BRK	60	288	0
STR	61	0	1
SI_	61	0	1	96	48	3
TAP	61	0	4
STR	61	96	0
SI_	61	96	0	96	48	4
TAP	61	96	1
TAP	61	192	0
STR	61	192	3
SI_	61	192	3	96	48	7
TAP	61	288	3
STR	61	288	4
SI_	61	288	4	96	48	6
TAP	62	0	4
STR	62	0	7
SI_	62	0	7	96	48	3
STR	62	96	6
SI_	62	96	6	96	48	4
TAP	62	96	7
STR	62	192	3
SI_	62	192	3	96	48	1
TAP	62	192	6
TAP	62	288	3
STR	62	288	4
SI_	62	288	4	96	48	0
STR	63	0	1
SI_	63	0	1	96	48	3
TAP	63	0	4
STR	63	96	0
SI_	63	96	0	96	48	4
TAP	63	96	1
TAP	63	192	0
STR	63	192	3
SI_	63	192	3	96	48	7
TAP	63	288	3
STR	63	288	4
SI_	63	288	4	96	48	6
TAP	64	0	4
STR	64	0	7
SI_	64	0	7	96	48	3
STR	64	96	6
SCL	64	96	6	96	96	0
TAP	64	96	7
HLD	64	192	3	144
TAP	64	192	6
BRK	64	336	7
TAP	65	0	3
TAP	65	0	4
TAP	65	48	2
TAP	65	96	3
TAP	65	96	4
TAP	65	144	5
TAP	65	192	3
TAP	65	192	4
TAP	65	240	1
STR	65	288	3
SCL	65	288	3	96	48	1
STR	65	288	4
SI_	65	288	4	96	48	2
TAP	65	336	6
STR	66	0	3
SI_	66	0	3	96	48	5
STR	66	0	4
SCR	66	0	4	96	48	6
STR	66	96	3
SCL	66	96	3	96	48	0
STR	66	96	4
SUL	66	96	4	96	48	0
STR	66	192	3
SUR	66	192	3	96	48	7
STR	66	192	4
SCR	66	192	4	96	48	7
TAP	67	48	0
TAP	67	48	1
TAP	67	96	2
TAP	67	96	3
TAP	67	144	4
TAP	67	144	5
TAP	67	192	6
TAP	67	192	7
TAP	67	240	6
TAP	67	240	7
STR	67	288	0
SI_	67	288	0	96	24	5
TAP	67	288	1
STR	67	336	0
SI_	67	336	0	96	24	3
TAP	67	336	1
STR	68	0	0
SCL	68	0	0	96	24	5
STR	68	48	0
SCR	68	48	0	96	24	3
STR	68	96	0
SF_	68	96	0	96	48	4
TAP	68	144	0
BRK	68	192	0
HLD	69	0	3	96
TAP	69	0	4
TAP	69	48	7
HLD	69	96	5	96
TAP	69	144	7
HLD	69	192	2	48
TAP	69	240	7
STR	69	288	0
SXR	69	288	0	96	96	5
STR	69	288	1
SUR	69	288	1	96	96	4
TAP	69	336	0
TAP	69	336	1
TAP	70	144	2
TAP	70	144	7
TAP	70	192	2
TAP	70	192	7
TAP	70	288	5
TAP	70	336	4
HLD	71	0	2	96
TAP	71	0	3
TAP	71	48	6
HLD	71	96	4	96
TAP	71	144	6
HLD	71	192	3	48
TAP	71	240	6
STR	71	288	4
SUL	71	288	4	96	96	1
STR	71	288	5
SXL	71	288	5	96	96	0
TAP	71	336	4
TAP	71	336	5
TAP	72	144	3
TAP	72	144	6
TAP	72	192	3
TAP	72	192	6
TAP	72	288	2
TAP	72	336	3
TAP	73	0	4
HLD	73	0	5	96
TAP	73	48	1
HLD	73	96	3	96
TAP	73	144	1
HLD	73	192	4	96
TAP	73	240	1
HLD	73	288	2	96
TAP	73	336	1
TAP	74	0	3
TAP	74	48	7
TAP	74	96	4
TAP	74	96	5
TAP	74	144	0
TAP	74	192	3
TAP	74	192	4
TAP	74	288	2
TAP	74	288	5
TAP	74	336	4
TAP	75	0	3
TAP	75	48	0
TAP	75	48	2
TAP	75	96	3
TAP	75	96	4
TAP	75	144	5
TAP	75	144	7
TAP	75	192	3
TAP	75	192	4
TAP	75	240	1
TAP	75	240	2
STR	75	288	3
SCL	75	288	3	96	48	1
STR	75	288	4
SI_	75	288	4	96	48	1
TAP	75	336	5
TAP	75	336	6
STR	76	0	3
SI_	76	0	3	96	48	6
STR	76	0	4
SCR	76	0	4	96	48	6
STR	76	96	3
SCL	76	96	3	96	120	4
STR	76	96	4
SUL	76	96	4	96	120	3
BRK	76	192	3
BRK	76	192	4
STR	77	0	3
SI_	77	0	3	96	24	0
STR	77	0	4
SI_	77	0	4	96	24	7
TAP	77	96	3
TAP	77	96	4
TAP	77	192	1
TAP	77	192	6
TAP	77	240	0
TAP	77	288	1
TAP	77	336	2
TAP	77	336	3
TAP	78	0	4
TAP	78	0	5
TAP	78	48	6
TAP	78	48	7
TAP	78	96	0
TAP	78	96	1
TAP	78	144	2
TAP	78	144	3
TAP	78	192	0
TAP	78	192	5
STR	78	288	3
SCL	78	288	3	96	48	7
STR	78	288	7
SCL	78	288	7	96	48	3
TAP	79	0	3
TAP	79	0	7
TAP	79	96	3
TAP	79	96	7
TAP	79	144	5
TAP	79	192	0
TAP	79	192	4
TAP	79	240	1
STR	79	288	3
SXR	79	288	3	96	96	0
STR	79	288	4
SXL	79	288	4	96	96	7
TAP	79	336	3
TAP	79	336	4
TAP	80	144	1
TAP	80	144	6
TAP	80	192	1
TAP	80	192	6
TAP	80	288	0
TAP	80	288	1
TAP	80	336	2
TAP	80	336	7
TAP	81	0	3
TAP	81	0	6
TAP	81	48	0
TAP	81	48	7
TAP	81	96	1
TAP	81	96	6
TAP	81	144	2
TAP	81	144	5
TAP	81	192	3
TAP	81	192	4
TAP	81	240	6
TAP	81	240	7
TAP	81	288	0
TAP	81	288	5
TAP	81	336	1
TAP	81	336	4
TAP	82	0	2
TAP	82	0	3
TAP	82	48	0
TAP	82	48	1
TAP	82	96	6
TAP	82	96	7
TAP	82	144	4
TAP	82	144	5
TAP	82	192	2
TAP	82	192	7
TAP	82	288	1
TAP	82	336	0
HLD	83	0	6	48
HLD	83	0	7	48
TAP	83	96	6
TAP	83	96	7
TAP	83	144	0
TAP	83	144	7
HLD	83	192	0	48
HLD	83	192	1	48
TAP	83	288	0
TAP	83	288	1
TAP	83	336	0
TAP	83	336	7
HLD	84	0	6	48
HLD	84	48	4	48
HLD	84	96	3	48
HLD	84	144	1	48
HLD	84	192	2	48
HLD	84	240	3	48
HLD	84	288	4	48
TAP	84	336	5
STR	85	0	0
SI_	85	0	0	96	24	4
STR	85	192	6
SCR	85	192	6	96	48	1
STR	85	240	1
SI_	85	240	1	96	48	5
STR	85	288	5
SI_	85	288	5	96	96	2
TAP	86	144	3
TAP	86	144	4
STR	86	192	0
SI_	86	192	0	96	48	4
STR	86	192	7
SI_	86	192	7	96	48	3
TAP	86	216	1
TAP	86	216	6
TAP	86	240	2
TAP	86	240	5
BRK	86	288	0
BRK	86	288	7
BST	87	0	3
SF_	87	0	3	96	48	7
BRK	87	96	3
BST	87	192	4
SF_	87	192	4	96	48	0
BRK	87	288	4
BRK	88	0	5
BRK	88	0	6
BRK	88	48	1
BRK	88	48	2
BRK	88	96	3
BRK	88	96	4
BRK	88	120	3
BRK	88	120	4
BRK	88	168	0
BRK	88	168	7
BST	88	192	0
SI_	88	192	0	96	96	3
BST	88	192	7
SI_	88	192	7	96	96	4
BRK	88	288	0
BRK	88	288	7

T_REC_TAP	602
T_REC_BRK	29
T_REC_XTP	0
T_REC_HLD	68
T_REC_XHO	0
T_REC_STR	108
T_REC_BST	5
T_REC_XST	0
T_REC_TTP	0
T_REC_THO	0
T_REC_SLD	113
T_REC_ALL	925
T_NUM_TAP	710
T_NUM_BRK	34
T_NUM_HLD	68
T_NUM_SLD	113
T_NUM_ALL	925
T_JUDGE_TAP	744
T_JUDGE_HLD	97
T_JUDGE_SLD	113
T_JUDGE_ALL	954
TTM_EACHPAIRS	241
TTM_SCR_TAP	355000
TTM_SCR_BRK	88400
TTM_SCR_HLD	68000
TTM_SCR_SLD	169500
TTM_SCR_ALL	680900
TTM_SCR_S	657200
TTM_SCR_SS	677500
TTM_RAT_ACV	10050

