VERSION	0.00.00	1.03.00
FES_MODE	0
BPM_DEF	150.000	150.000	150.000	150.000
MET_DEF	4	4
RESOLUTION	384
CLK_DEF	384
COMPATIBLE_CODE	MA2

BPM	0	0	150.000
MET	0	0	4	4

TAP	2	0	3
TAP	2	0	4
TAP	2	96	2
TAP	2	96	5
TAP	2	192	1
TAP	2	192	6
TAP	2	288	0
TAP	2	288	7
TAP	3	0	0
TAP	3	48	0
TAP	3	96	7
TAP	3	144	7
STR	3	192	0
SI_	3	192	0	96	48	4
BRK	3	288	6
TAP	4	0	6
TAP	4	48	7
TAP	4	96	6
TAP	4	192	1
TAP	4	240	0
TAP	4	288	1
HLD	5	0	6	96
HLD	5	96	5	96
TAP	5	192	4
TAP	5	240	4
TAP	5	288	4
TAP	6	0	1
TAP	6	48	0
TAP	6	96	1
TAP	6	192	6
TAP	6	240	7
TAP	6	288	6
HLD	7	0	1	96
HLD	7	96	2	96
HLD	7	192	3	96
TAP	7	288	4
TAP	8	0	5
TAP	8	48	4
TAP	8	96	5
TAP	8	192	2
TAP	8	240	3
TAP	8	288	2
HLD	9	0	5	96
HLD	9	96	6	96
TAP	9	192	7
TAP	9	240	7
TAP	9	288	7
TAP	10	0	2
TAP	10	48	3
TAP	10	96	2
TAP	10	192	5
TAP	10	240	4
TAP	10	288	5
TAP	11	0	2
TAP	11	0	3
TAP	11	96	0
TAP	11	96	1
TAP	11	192	7
TAP	11	240	7
BRK	11	288	7
HLD	12	0	1	96
TAP	12	96	0
HLD	12	192	6	96
TAP	12	288	7
TAP	13	0	3
TAP	13	0	5
TAP	13	96	2
TAP	13	96	4
HLD	13	192	1	96
TAP	13	288	7
HLD	14	0	5	96
TAP	14	96	4
HLD	14	192	2	96
TAP	14	288	3
TAP	15	0	1
TAP	15	0	7
TAP	15	96	0
TAP	15	96	6
HLD	15	192	5	96
TAP	15	288	3
TAP	16	0	4
TAP	16	0	5
TAP	16	96	3
TAP	16	96	6
TAP	16	192	2
TAP	16	192	3
TAP	16	288	1
TAP	16	288	4
STR	17	0	3
SI_	17	0	3	96	48	0
STR	17	0	5
SI_	17	0	5	96	48	0
STR	17	192	2
SI_	17	192	2	96	48	7
STR	17	192	4
SI_	17	192	4	96	48	7
TAP	18	0	0
TAP	18	0	1
TAP	18	96	2
TAP	18	96	7
TAP	18	192	6
TAP	18	192	7
TAP	18	288	0
TAP	18	288	5
STR	19	0	0
SSL	19	0	0	96	144	4
TAP	19	0	7
TAP	20	0	6
TAP	20	0	7
TAP	20	96	0
TAP	20	96	1
TAP	20	192	7
TAP	20	240	0
TAP	20	288	7
TAP	21	0	1
TAP	21	48	0
TAP	21	48	1
TAP	21	144	1
TAP	21	144	7
TAP	21	240	6
TAP	21	240	7
TAP	21	336	0
TAP	21	336	6
TAP	22	48	0
TAP	22	48	1
TAP	22	144	2
TAP	22	144	7
TAP	22	240	6
TAP	22	240	7
TAP	22	336	0
TAP	22	336	5
TAP	23	48	1
TAP	23	48	7
TAP	23	144	3
TAP	23	144	6
TAP	23	240	0
TAP	23	240	6
STR	23	336	1
SXR	23	336	1	96	144	6
TAP	23	336	4
TAP	24	0	1
TAP	25	0	5
TAP	25	48	4
TAP	25	48	5
TAP	25	144	0
TAP	25	144	2
TAP	25	240	2
TAP	25	240	3
TAP	25	336	5
TAP	25	336	7
TAP	26	48	3
TAP	26	48	5
TAP	26	144	0
TAP	26	144	2
TAP	26	240	2
TAP	26	240	4
TAP	26	336	5
TAP	26	336	7
TAP	27	48	3
TAP	27	48	6
TAP	27	144	0
TAP	27	144	2
TAP	27	240	1
TAP	27	240	4
STR	27	336	5
SUL	27	336	5	96	144	2
TAP	27	336	7
TAP	28	0	5
TAP	29	0	0
TAP	29	48	7
TAP	29	96	0
TAP	29	144	7
TAP	29	192	1
TAP	29	192	6
TAP	29	288	3
TAP	29	336	4
HLD	30	0	3	96
TAP	30	96	2
TAP	30	192	1
TAP	30	288	0
TAP	30	288	5
HLD	31	0	4	96
TAP	31	96	5
TAP	31	192	6
TAP	31	288	2
TAP	31	288	7
HLD	32	0	3	96
TAP	32	96	2
TAP	32	192	1
TAP	32	288	0
TAP	32	288	5
TAP	33	0	1
TAP	33	48	0
TAP	33	96	1
TAP	33	144	0
TAP	33	192	1
TAP	33	288	4
TAP	33	336	3
HLD	34	0	4	96
TAP	34	96	5
TAP	34	192	6
STR	34	288	2
SUR	34	288	2	96	192	5
TAP	34	288	7
TAP	35	288	1
TAP	35	288	6
STR	36	0	2
SCL	36	0	2	96	192	6
STR	36	0	5
SUR	36	0	5	96	192	3
STR	37	0	2
SUL	37	0	2	96	192	4
STR	37	0	5
SCR	37	0	5	96	192	1
TAP	38	0	3
TAP	38	0	4
TAP	38	96	2
TAP	38	96	5
TAP	38	192	1
TAP	38	192	6
TAP	38	288	0
TAP	38	288	7
STR	39	0	2
SV_	39	0	2	96	192	0
STR	39	0	6
SV_	39	0	6	96	192	4
TAP	40	0	0
TAP	40	0	1
TAP	40	96	2
TAP	40	96	3
TAP	40	192	4
TAP	40	192	5
TAP	40	288	6
TAP	40	288	7
TAP	41	0	0
TAP	41	48	7
TAP	41	96	0
TAP	41	144	7
TAP	41	192	1
TAP	41	192	6
BRK	41	288	0
BRK	41	288	7
TAP	42	0	0
HLD	42	0	7	576
TAP	42	48	0
TAP	42	96	1
TAP	42	192	2
TAP	42	240	2
TAP	42	288	3
TAP	43	0	2
TAP	43	48	2
TAP	43	96	1
TAP	43	192	0
TAP	43	288	3
TAP	43	288	4
TAP	44	0	1
HLD	44	0	4	576
TAP	44	48	1
TAP	44	96	0
TAP	44	192	7
TAP	44	240	7
TAP	44	288	6
TAP	45	0	7
TAP	45	48	7
TAP	45	96	0
BRK	45	192	1
TAP	45	288	0
TAP	45	288	7
TAP	46	0	2
HLD	46	0	7	576
TAP	46	48	2
TAP	46	96	3
TAP	46	192	4
TAP	46	240	4
TAP	46	288	5
TAP	47	0	4
TAP	47	48	4
TAP	47	96	3
TAP	47	192	2
TAP	47	288	3
TAP	47	288	6
TAP	48	0	4
HLD	48	0	5	576
TAP	48	48	4
TAP	48	96	3
TAP	48	192	2
TAP	48	240	2
TAP	48	288	1
BRK	49	0	0
BRK	49	96	7
BRK	49	192	0
TAP	49	288	3
TAP	49	288	4
STR	50	0	0
SI_	50	0	0	96	48	5
STR	50	0	1
SI_	50	0	1	96	48	4
STR	50	192	6
SI_	50	192	6	96	48	3
STR	50	192	7
SI_	50	192	7	96	48	2
TAP	51	0	1
TAP	51	48	0
TAP	51	96	2
TAP	51	144	7
TAP	51	192	3
TAP	51	288	4
TAP	51	288	5
STR	52	0	6
SI_	52	0	6	96	48	3
STR	52	0	7
SI_	52	0	7	96	48	2
STR	52	192	0
SI_	52	192	0	96	48	5
STR	52	192	1
SI_	52	192	1	96	48	4
TAP	53	0	6
TAP	53	48	7
TAP	53	96	5
TAP	53	144	0
TAP	53	192	4
TAP	53	288	2
TAP	53	288	3
STR	54	0	4
SI_	54	0	4	96	48	1
STR	54	0	5
SI_	54	0	5	96	48	0
STR	54	192	2
SI_	54	192	2	96	48	7
STR	54	192	3
SI_	54	192	3	96	48	6
TAP	55	0	5
TAP	55	48	4
TAP	55	96	6
TAP	55	144	3
TAP	55	192	7
TAP	55	288	0
TAP	55	288	1
HLD	56	0	2	96
TAP	56	0	4
TAP	56	96	1
TAP	56	192	3
HLD	56	192	5	96
TAP	56	288	6
STR	57	0	1
SLR	57	0	1	96	192	0
STR	57	0	6
SLL	57	0	6	96	192	7
TAP	58	0	1
TAP	58	0	7
TAP	58	96	4
TAP	58	96	5
TAP	58	192	0
TAP	58	192	6
TAP	58	288	2
TAP	58	288	3
TAP	59	0	0
TAP	59	0	1
TAP	59	96	6
TAP	59	96	7
TAP	59	192	1
TAP	59	192	4
TAP	59	288	3
TAP	59	288	6
TAP	60	0	2
TAP	60	0	4
TAP	60	48	2
TAP	60	48	4
HLD	60	96	3	96
TAP	60	192	4
BRK	60	288	0
HLD	61	0	4	96
TAP	61	96	5
HLD	61	192	3	96
TAP	61	288	2
HLD	62	0	7	96
TAP	62	96	6
HLD	62	192	0	96
TAP	62	288	1
HLD	63	0	5	96
TAP	63	96	7
HLD	63	192	2	96
TAP	63	288	0
HLD	64	0	7	96
TAP	64	96	5
TAP	64	192	3
TAP	64	192	5
TAP	64	240	2
TAP	64	240	4
TAP	64	288	3
TAP	64	288	5
STR	65	0	0
SI_	65	0	0	96	48	4
TAP	65	96	6
STR	65	192	7
SI_	65	192	7	96	48	3
TAP	65	288	1
STR	66	0	1
SI_	66	0	1	96	48	4
TAP	66	96	7
STR	66	192	6
SI_	66	192	6	96	48	3
TAP	66	288	0
TAP	67	48	2
TAP	67	96	3
TAP	67	144	2
TAP	67	192	5
TAP	67	240	5
TAP	67	288	4
TAP	67	336	4
TAP	68	0	3
TAP	68	0	5
TAP	68	48	3
TAP	68	48	5
TAP	68	96	2
TAP	68	96	6
TAP	68	144	2
TAP	68	144	6
TAP	68	192	1
TAP	68	192	7
BRK	68	288	0
TAP	69	0	1
TAP	69	48	0
TAP	69	96	1
TAP	69	144	0
TAP	69	192	2
TAP	69	240	3
STR	69	288	2
SUR	69	288	2	96	192	5
TAP	69	336	3
TAP	70	288	1
TAP	70	288	6
TAP	71	0	6
TAP	71	48	7
TAP	71	96	6
TAP	71	144	7
TAP	71	192	5
TAP	71	240	4
STR	71	288	5
SXL	71	288	5	96	192	0
TAP	71	336	4
TAP	72	288	1
TAP	72	288	6
TAP	73	0	2
TAP	73	48	3
TAP	73	96	2
TAP	73	144	3
TAP	73	192	1
TAP	73	240	0
STR	73	288	1
SXL	73	288	1	96	192	6
TAP	73	336	0
TAP	74	288	0
TAP	74	288	7
TAP	75	0	2
TAP	75	0	3
TAP	75	96	4
TAP	75	96	5
TAP	75	192	6
TAP	75	192	7
TAP	75	288	0
TAP	75	288	1
STR	76	0	2
SUL	76	0	2	96	96	5
STR	76	0	3
SV_	76	0	3	96	96	5
TAP	76	288	1
TAP	76	288	6
TAP	77	0	2
TAP	77	48	4
TAP	77	96	2
TAP	77	144	4
TAP	77	192	3
TAP	77	240	5
STR	77	288	3
SSR	77	288	3	96	192	7
TAP	77	336	5
TAP	78	288	1
TAP	78	288	6
TAP	79	0	5
TAP	79	48	3
TAP	79	96	5
TAP	79	144	3
TAP	79	192	4
TAP	79	240	2
STR	79	288	4
SXL	79	288	4	96	192	7
TAP	79	336	2
TAP	80	288	1
TAP	80	288	6
TAP	81	0	2
TAP	81	48	7
TAP	81	96	2
TAP	81	144	7
TAP	81	192	1
TAP	81	240	6
STR	81	288	1
SXR	81	288	1	96	192	5
TAP	81	336	6
TAP	82	288	1
TAP	82	288	6
HLD	83	0	0	96
STR	83	0	6
SCL	83	0	6	96	48	3
STR	83	192	1
SCR	83	192	1	96	48	4
HLD	83	192	7	96
STR	84	0	7
SLL	84	0	7	96	96	3
SLR	84	0	7	96	96	3
TAP	84	288	1
TAP	84	288	5
STR	85	0	3
SI_	85	0	3	96	48	0
STR	85	0	7
SI_	85	0	7	96	48	4
STR	85	192	0
SCR	85	192	0	96	48	3
STR	85	192	4
SCR	85	192	4	96	48	7
STR	86	0	3
SCL	86	0	3	96	48	0
STR	86	0	7
SCL	86	0	7	96	48	4
TAP	86	192	0
TAP	86	192	4
TAP	86	288	2
TAP	86	288	6
TAP	87	0	0
TAP	87	48	6
TAP	87	96	2
TAP	87	144	4
TAP	87	192	3
TAP	87	240	5
TAP	87	288	2
TAP	87	336	6
TAP	88	0	1
TAP	88	0	7
TAP	88	48	1
TAP	88	48	7
HLD	88	96	0	96
STR	88	192	7
SI_	88	192	7	96	48	3
BRK	88	288	1

T_REC_TAP	396
T_REC_BRK	11
T_REC_XTP	0
T_REC_HLD	34
T_REC_XHO	0
T_REC_STR	51
T_REC_BST	0
T_REC_XST	0
T_REC_TTP	0
T_REC_THO	0
T_REC_SLD	52
T_REC_ALL	544
T_NUM_TAP	447
T_NUM_BRK	11
T_NUM_HLD	34
T_NUM_SLD	52
T_NUM_ALL	544
T_JUDGE_TAP	458
T_JUDGE_HLD	108
T_JUDGE_SLD	52
T_JUDGE_ALL	618
TTM_EACHPAIRS	126
TTM_SCR_TAP	223500
TTM_SCR_BRK	28600
TTM_SCR_HLD	34000
TTM_SCR_SLD	78000
TTM_SCR_ALL	364100
TTM_SCR_S	352150
TTM_SCR_SS	363000
TTM_RAT_ACV	10030

