VERSION	0.00.00	1.03.00
FES_MODE	0
BPM_DEF	150.000	150.000	150.000	150.000
MET_DEF	4	4
RESOLUTION	384
CLK_DEF	384
COMPATIBLE_CODE	MA2

BPM	0	0	150.000
MET	0	0	4	4

TAP	4	0	2
TAP	4	96	2
TAP	4	192	2
TAP	4	192	3
TAP	5	0	5
TAP	5	96	5
TAP	5	192	4
TAP	5	192	5
TAP	6	0	2
TAP	6	96	2
TAP	6	192	2
TAP	6	192	3
TAP	7	0	5
TAP	7	96	5
TAP	7	192	4
TAP	7	192	5
TAP	7	288	4
TAP	7	288	5
TAP	8	0	6
TAP	8	96	6
TAP	8	192	6
TAP	8	192	7
TAP	9	0	1
TAP	9	96	1
TAP	9	192	0
TAP	9	192	1
TAP	10	0	6
TAP	10	96	6
TAP	10	192	6
TAP	10	192	7
TAP	11	0	0
TAP	11	0	7
TAP	11	96	0
TAP	11	96	7
TAP	11	192	1
TAP	11	192	6
TAP	11	288	1
TAP	11	288	6
TAP	12	0	2
TAP	12	96	2
TAP	12	192	3
TAP	12	288	3
TAP	13	0	2
TAP	13	96	3
TAP	13	192	1
TAP	13	192	4
TAP	14	0	5
TAP	14	96	5
TAP	14	192	4
TAP	14	288	4
TAP	15	0	5
TAP	15	96	4
TAP	15	192	3
TAP	15	192	6
TAP	16	0	3
TAP	16	96	3
TAP	16	192	4
TAP	16	288	4
TAP	17	0	3
TAP	17	96	4
TAP	17	192	3
TAP	17	192	4
TAP	17	288	1
TAP	17	288	6
TAP	18	0	0
TAP	18	96	0
TAP	18	192	7
TAP	18	288	7
TAP	19	0	0
TAP	19	0	7
TAP	19	96	1
TAP	19	144	1
TAP	19	192	1
STR	20	0	1
SUR	20	0	1	96	192	4
TAP	21	0	6
TAP	21	96	6
TAP	21	192	7
TAP	21	288	7
TAP	22	0	6
TAP	22	96	7
TAP	22	192	0
TAP	22	192	5
TAP	23	0	1
TAP	23	96	1
TAP	23	192	0
TAP	23	288	0
TAP	24	0	1
TAP	24	96	0
TAP	24	192	2
TAP	24	192	7
TAP	25	0	6
TAP	25	96	6
TAP	25	192	7
TAP	25	288	7
TAP	26	0	6
TAP	26	96	7
TAP	26	192	0
TAP	26	192	5
STR	27	0	1
SI_	27	0	1	96	96	4
STR	27	192	6
SI_	27	192	6	96	96	3
TAP	28	0	0
TAP	28	96	7
TAP	28	192	1
TAP	28	192	6
STR	29	0	6
SUL	29	0	6	96	192	3
HLD	30	0	2	192
TAP	30	192	3
TAP	30	288	1
TAP	30	288	4
HLD	31	0	5	192
TAP	31	192	4
TAP	31	288	3
TAP	31	288	6
HLD	32	0	2	192
TAP	32	192	3
TAP	32	288	1
TAP	32	288	4
TAP	33	0	2
TAP	33	0	3
TAP	33	96	4
TAP	33	96	5
TAP	33	192	1
TAP	33	192	6
HLD	34	0	1	192
TAP	34	192	0
TAP	34	288	2
TAP	34	288	7
HLD	35	0	6	192
TAP	35	192	7
TAP	35	288	0
TAP	35	288	5
STR	36	0	6
SCL	36	0	6	96	144	3
STR	36	0	7
SUL	36	0	7	96	144	2
STR	37	0	0
SUR	37	0	0	96	144	5
STR	37	0	1
SCR	37	0	1	96	144	4
TAP	38	0	5
TAP	38	96	4
TAP	38	96	5
TAP	38	192	2
TAP	38	288	2
TAP	38	288	3
STR	39	0	3
SCL	39	0	3	96	144	0
STR	39	0	4
SCR	39	0	4	96	144	7
TAP	40	0	0
TAP	40	0	7
TAP	40	96	0
TAP	40	96	7
TAP	40	192	1
TAP	40	192	6
TAP	40	288	1
TAP	40	288	6
TAP	41	0	2
TAP	41	0	5
TAP	41	96	2
TAP	41	96	5
TAP	41	192	3
TAP	41	192	4
TAP	42	0	0
TAP	42	96	1
TAP	42	192	2
TAP	42	288	1
TAP	43	0	0
TAP	43	96	1
TAP	43	144	1
TAP	43	192	1
TAP	44	0	2
TAP	44	96	1
TAP	44	192	0
TAP	44	288	1
TAP	45	0	2
TAP	45	96	1
TAP	45	144	1
TAP	45	192	1
TAP	46	0	0
TAP	46	96	2
TAP	46	192	0
TAP	46	288	2
TAP	47	0	0
TAP	47	96	1
TAP	47	144	1
TAP	47	192	1
TAP	48	0	0
TAP	48	96	1
TAP	48	192	2
TAP	48	288	3
BRK	49	0	2
BRK	49	96	1
BRK	49	192	0
TAP	50	0	5
TAP	50	96	4
TAP	50	96	5
TAP	50	192	2
TAP	50	288	2
TAP	50	288	3
STR	51	0	0
SI_	51	0	0	96	96	5
STR	51	0	1
SI_	51	0	1	96	96	4
TAP	52	0	2
TAP	52	96	2
TAP	52	96	3
TAP	52	192	5
TAP	52	288	4
TAP	52	288	5
STR	53	0	6
SI_	53	0	6	96	96	3
STR	53	0	7
SI_	53	0	7	96	96	2
TAP	54	0	5
TAP	54	96	4
TAP	54	96	6
TAP	54	192	2
TAP	54	288	1
TAP	54	288	3
STR	55	0	3
SI_	55	0	3	96	96	0
STR	55	0	4
SI_	55	0	4	96	96	7
TAP	56	0	6
TAP	56	96	5
TAP	56	96	7
TAP	56	192	1
TAP	56	288	0
TAP	56	288	2
STR	57	0	0
SCR	57	0	0	96	144	3
STR	57	0	7
SCL	57	0	7	96	144	4
TAP	58	0	1
TAP	58	96	0
TAP	58	96	1
TAP	58	192	6
TAP	58	288	6
TAP	58	288	7
TAP	59	0	0
TAP	59	0	7
TAP	59	96	1
TAP	59	96	6
TAP	59	192	2
TAP	59	192	5
TAP	59	288	3
TAP	59	288	4
TAP	60	0	2
TAP	60	0	5
TAP	60	96	3
TAP	60	96	4
TAP	60	144	3
TAP	60	144	4
TAP	60	192	3
TAP	60	192	4
HLD	61	0	2	96
TAP	61	96	3
HLD	61	192	5	96
TAP	61	288	4
HLD	62	0	1	96
TAP	62	96	2
HLD	62	192	6	96
TAP	62	288	5
HLD	63	0	2	96
TAP	63	96	1
HLD	63	192	5	96
TAP	63	288	6
HLD	64	0	1	96
TAP	64	96	0
TAP	64	192	7
TAP	64	240	7
TAP	64	288	7
HLD	65	0	5	96
TAP	65	96	4
HLD	65	192	2	96
TAP	65	288	3
TAP	66	0	3
TAP	66	0	4
TAP	66	96	0
TAP	66	96	1
TAP	66	192	3
TAP	66	192	4
TAP	66	288	6
TAP	66	288	7
STR	67	0	3
SCL	67	0	3	96	144	0
STR	67	0	4
SCR	67	0	4	96	144	7
TAP	68	0	0
TAP	68	0	7
TAP	68	96	0
TAP	68	96	7
BRK	68	192	1
BRK	68	192	6
TAP	69	0	2
TAP	69	96	1
TAP	69	96	3
TAP	69	192	4
TAP	69	288	3
TAP	69	288	5
TAP	70	0	2
TAP	70	0	6
TAP	70	96	1
TAP	70	144	1
TAP	70	192	0
TAP	71	0	5
TAP	71	96	4
TAP	71	96	6
TAP	71	192	2
TAP	71	288	1
TAP	71	288	3
STR	72	0	3
SXR	72	0	3	96	192	0
STR	72	0	4
SXL	72	0	4	96	192	7
TAP	73	0	5
TAP	73	96	4
TAP	73	96	6
TAP	73	192	3
TAP	73	288	2
TAP	73	288	4
TAP	74	0	1
TAP	74	0	5
TAP	74	96	6
TAP	74	144	6
TAP	74	192	7
TAP	75	0	2
TAP	75	96	1
TAP	75	96	3
TAP	75	192	5
TAP	75	288	4
TAP	75	288	6
TAP	76	0	2
TAP	76	0	3
TAP	76	96	4
TAP	76	96	5
BRK	76	192	0
BRK	76	192	7
TAP	77	0	1
TAP	77	96	0
TAP	77	96	2
TAP	77	192	6
TAP	77	288	5
TAP	77	288	7
TAP	78	0	1
TAP	78	0	4
TAP	78	96	2
TAP	78	144	3
TAP	78	192	2
TAP	78	288	3
TAP	78	288	4
TAP	79	0	6
TAP	79	96	5
TAP	79	96	7
TAP	79	192	1
TAP	79	288	0
TAP	79	288	2
TAP	80	0	3
TAP	80	0	6
TAP	80	96	5
TAP	80	144	4
TAP	80	192	5
TAP	80	288	3
TAP	80	288	4
TAP	81	0	6
TAP	81	96	5
TAP	81	96	7
TAP	81	192	1
TAP	81	288	0
TAP	81	288	2
STR	82	0	3
SXR	82	0	3	96	192	0
STR	82	0	4
SXL	82	0	4	96	192	7
TAP	83	0	0
TAP	83	0	1
TAP	83	96	2
TAP	83	192	0
TAP	83	192	1
TAP	83	288	7
STR	84	0	0
SI_	84	0	0	96	96	5
STR	84	0	1
SI_	84	0	1	96	96	4
TAP	85	0	6
TAP	85	0	7
TAP	85	96	5
TAP	85	192	6
TAP	85	192	7
TAP	85	288	0
STR	86	0	6
SI_	86	0	6	96	96	3
STR	86	0	7
SI_	86	0	7	96	96	2
TAP	87	0	3
TAP	87	0	4
TAP	87	96	2
TAP	87	96	3
TAP	87	192	3
TAP	87	192	4
TAP	87	288	4
TAP	87	288	5
TAP	88	0	3
TAP	88	0	4
TAP	88	96	3
TAP	88	96	4
TAP	88	192	1
TAP	88	192	6
BRK	88	288	0

T_REC_TAP	336
T_REC_BRK	8
T_REC_XTP	0
T_REC_HLD	14
T_REC_XHO	0
T_REC_STR	28
T_REC_BST	0
T_REC_XST	0
T_REC_TTP	0
T_REC_THO	0
T_REC_SLD	28
T_REC_ALL	414
T_NUM_TAP	364
T_NUM_BRK	8
T_NUM_HLD	14
T_NUM_SLD	28
T_NUM_ALL	414
T_JUDGE_TAP	372
T_JUDGE_HLD	38
T_JUDGE_SLD	28
T_JUDGE_ALL	438
TTM_EACHPAIRS	109
TTM_SCR_TAP	182000
TTM_SCR_BRK	20800
TTM_SCR_HLD	14000
TTM_SCR_SLD	42000
TTM_SCR_ALL	258800
TTM_SCR_S	250300
TTM_SCR_SS	258000
TTM_RAT_ACV	10031

