VERSION	0.00.00	1.03.00
FES_MODE	0
BPM_DEF	150.000	150.000	150.000	150.000
MET_DEF	4	4
RESOLUTION	384
CLK_DEF	384
COMPATIBLE_CODE	MA2

BPM	0	0	150.000
MET	0	0	4	4

TAP	2	0	0
TAP	2	192	7
TAP	3	0	0
TAP	3	0	7
TAP	3	96	0
TAP	3	96	7
TAP	3	192	1
TAP	3	192	6
TAP	4	0	2
TAP	4	96	2
TAP	4	192	3
TAP	4	288	3
TAP	5	0	4
TAP	5	96	4
TAP	5	192	4
TAP	5	192	5
TAP	6	0	5
TAP	6	96	5
TAP	6	192	4
TAP	6	288	4
HLD	7	0	2	192
HLD	7	0	3	192
TAP	8	0	1
TAP	8	96	1
TAP	8	192	0
TAP	8	288	0
TAP	9	0	7
TAP	9	96	7
TAP	9	192	6
TAP	9	192	7
TAP	10	0	6
TAP	10	96	6
TAP	10	192	7
TAP	10	288	7
TAP	11	0	0
TAP	11	96	0
BRK	11	192	0
BRK	11	192	1
TAP	12	0	2
TAP	12	0	3
TAP	12	192	2
TAP	12	192	3
TAP	13	0	2
TAP	13	96	3
TAP	13	192	2
TAP	14	0	4
TAP	14	0	5
TAP	14	192	4
TAP	14	192	5
TAP	15	0	5
TAP	15	96	4
TAP	15	192	5
TAP	16	0	6
TAP	16	0	7
TAP	16	192	0
TAP	16	192	1
TAP	17	0	6
TAP	17	0	7
TAP	17	192	0
TAP	17	192	1
TAP	18	0	6
TAP	18	96	6
TAP	18	192	7
TAP	18	288	7
TAP	19	0	0
TAP	19	96	0
TAP	19	192	0
TAP	19	192	7
TAP	20	0	0
TAP	20	96	0
TAP	20	192	0
BRK	20	288	0
TAP	21	0	1
TAP	21	96	1
TAP	21	192	2
TAP	21	288	2
TAP	22	0	3
TAP	22	96	3
TAP	22	192	3
TAP	22	192	4
TAP	23	0	4
TAP	23	96	4
TAP	23	192	5
TAP	23	288	5
TAP	24	0	6
TAP	24	96	6
TAP	24	192	0
TAP	24	192	7
TAP	25	0	6
TAP	25	96	6
TAP	25	192	5
TAP	25	288	5
TAP	26	0	4
TAP	26	96	4
TAP	26	192	3
TAP	26	192	4
TAP	27	0	3
TAP	27	96	3
TAP	27	192	2
TAP	27	288	2
TAP	28	0	1
TAP	28	96	1
TAP	28	192	0
TAP	28	192	7
HLD	29	0	1	192
HLD	29	0	6	192
STR	30	0	0
SI_	30	0	0	96	288	4
STR	32	0	7
SI_	32	0	7	96	288	3
STR	34	0	1
SI_	34	0	1	96	288	4
HLD	36	0	5	192
HLD	37	0	2	192
STR	38	0	3
SI_	38	0	3	96	288	0
STR	38	0	4
SI_	38	0	4	96	288	7
TAP	40	0	0
TAP	40	0	1
TAP	40	192	6
TAP	40	192	7
TAP	41	0	0
TAP	41	96	7
BRK	41	192	1
BRK	41	192	6
TAP	42	0	0
TAP	42	96	0
TAP	42	192	0
TAP	42	288	0
TAP	43	0	1
TAP	43	96	1
TAP	43	192	1
TAP	44	0	0
TAP	44	96	0
TAP	44	192	0
TAP	44	288	0
TAP	45	0	1
TAP	45	96	1
BRK	45	192	1
HLD	46	0	7	192
HLD	47	0	6	192
HLD	47	0	7	192
TAP	48	0	7
TAP	48	96	7
TAP	48	192	0
TAP	48	288	0
BRK	49	0	1
BRK	49	96	1
BRK	49	192	1
TAP	50	0	2
TAP	50	96	2
TAP	50	192	3
TAP	50	288	3
TAP	51	0	4
TAP	51	96	4
TAP	51	192	3
TAP	51	192	5
TAP	52	0	5
TAP	52	96	5
TAP	52	192	4
TAP	52	288	4
TAP	53	0	3
TAP	53	96	3
TAP	53	192	2
TAP	53	192	4
TAP	54	0	2
TAP	54	96	2
TAP	54	192	1
TAP	54	288	1
TAP	55	0	0
TAP	55	96	0
TAP	55	192	1
TAP	55	192	7
STR	56	0	7
SI_	56	0	7	96	288	4
TAP	58	0	2
TAP	58	0	3
TAP	58	96	2
TAP	58	96	3
TAP	58	192	4
TAP	58	192	5
TAP	58	288	4
TAP	58	288	5
TAP	59	0	3
TAP	59	96	3
TAP	59	192	4
TAP	59	288	4
TAP	60	0	3
TAP	60	96	4
TAP	60	192	3
TAP	60	288	2
TAP	60	288	5
TAP	61	0	3
TAP	61	96	3
TAP	61	192	4
TAP	61	288	4
TAP	62	0	5
TAP	62	96	5
TAP	62	192	6
TAP	62	192	7
TAP	63	0	7
TAP	63	96	7
TAP	63	192	0
TAP	63	288	0
TAP	64	0	1
TAP	64	96	1
TAP	64	192	2
TAP	64	192	3
TAP	65	0	1
TAP	65	96	1
TAP	65	192	0
TAP	65	288	0
TAP	66	0	7
TAP	66	96	7
TAP	66	192	6
TAP	66	192	7
TAP	67	0	5
TAP	67	96	4
TAP	67	192	3
TAP	67	288	2
TAP	68	0	3
TAP	68	96	4
TAP	68	192	4
TAP	68	192	5
TAP	69	0	6
TAP	69	96	6
TAP	69	192	5
TAP	69	288	5
TAP	70	0	3
TAP	70	96	4
TAP	70	192	3
STR	71	0	3
SI_	71	0	3	96	288	0
STR	71	0	4
SI_	71	0	4	96	288	7
TAP	73	0	1
TAP	73	96	1
TAP	73	192	2
TAP	73	288	2
TAP	74	0	4
TAP	74	96	3
TAP	74	192	4
STR	75	0	2
SI_	75	0	2	96	288	6
TAP	77	0	5
TAP	77	96	4
TAP	77	192	5
TAP	77	288	4
TAP	78	0	5
TAP	78	96	5
TAP	78	192	4
TAP	78	192	6
STR	79	0	3
SI_	79	0	3	96	288	0
STR	79	0	4
SI_	79	0	4	96	288	7
TAP	81	0	2
TAP	81	96	3
TAP	81	192	2
TAP	81	288	3
TAP	82	0	2
TAP	82	96	2
TAP	82	192	1
TAP	82	192	3
TAP	83	0	4
TAP	83	0	5
TAP	83	96	4
TAP	83	96	5
TAP	83	192	3
TAP	83	192	6
TAP	83	288	3
TAP	83	288	6
HLD	84	0	4	192
HLD	84	0	5	192
TAP	85	0	2
TAP	85	0	3
TAP	85	96	2
TAP	85	96	3
TAP	85	192	1
TAP	85	192	4
TAP	85	288	1
TAP	85	288	4
HLD	86	0	2	192
HLD	86	0	3	192
TAP	87	0	0
TAP	87	0	1
TAP	87	96	0
TAP	87	96	1
TAP	87	192	6
TAP	87	192	7
TAP	87	288	6
TAP	87	288	7
TAP	88	0	0
TAP	88	96	7
TAP	88	192	0
BRK	88	288	1
BRK	88	288	6

T_REC_TAP	252
T_REC_BRK	11
T_REC_XTP	0
T_REC_HLD	13
T_REC_XHO	0
T_REC_STR	11
T_REC_BST	0
T_REC_XST	0
T_REC_TTP	0
T_REC_THO	0
T_REC_SLD	11
T_REC_ALL	298
T_NUM_TAP	263
T_NUM_BRK	11
T_NUM_HLD	13
T_NUM_SLD	11
T_NUM_ALL	298
T_JUDGE_TAP	274
T_JUDGE_HLD	52
T_JUDGE_SLD	11
T_JUDGE_ALL	337
TTM_EACHPAIRS	57
TTM_SCR_TAP	131500
TTM_SCR_BRK	28600
TTM_SCR_HLD	13000
TTM_SCR_SLD	16500
TTM_SCR_ALL	189600
TTM_SCR_S	182850
TTM_SCR_SS	188500
TTM_RAT_ACV	10058

