VERSION	0.00.00	1.03.00
FES_MODE	0
BPM_DEF	160.000	160.000	160.000	160.000
MET_DEF	4	4
RESOLUTION	384
CLK_DEF	384
COMPATIBLE_CODE	MA2

BPM	0	0	160.000
MET	0	0	4	4
MET	1	0	4	6
MET	2	192	4	4
MET	10	192	4	5
MET	13	0	4	6
MET	19	0	4	4
MET	45	0	4	5
MET	47	192	4	4
MET	85	192	4	5

STR	1	192	2
SI_	1	192	2	96	48	0
STR	1	192	3
SI_	1	192	3	96	48	5
TAP	2	0	4
TAP	2	0	5
STR	2	192	4
SI_	2	192	4	96	48	2
STR	2	192	5
SI_	2	192	5	96	48	7
TAP	3	0	1
TAP	3	0	4
STR	3	192	2
SI_	3	192	2	96	48	0
STR	3	192	3
SI_	3	192	3	96	48	5
TAP	4	0	4
TAP	4	0	5
STR	4	192	4
SI_	4	192	4	96	48	2
STR	4	192	5
SI_	4	192	5	96	48	7
TAP	5	0	1
TAP	5	0	4
STR	5	192	2
SI_	5	192	2	96	48	0
STR	5	192	3
SI_	5	192	3	96	48	5
STR	6	0	2
SI_	6	0	2	96	48	0
STR	6	0	3
SI_	6	0	3	96	48	5
STR	6	192	2
SI_	6	192	2	96	48	0
STR	6	192	3
SI_	6	192	3	96	48	5
TAP	7	0	4
TAP	7	0	5
STR	7	96	4
SI_	7	96	4	96	48	2
STR	7	96	5
SI_	7	96	5	96	48	7
TAP	7	288	2
TAP	7	288	3
STR	8	0	3
SI_	8	0	3	96	48	0
STR	8	0	4
SI_	8	0	4	96	48	7
STR	8	192	4
SI_	8	192	4	96	48	2
STR	8	192	5
SI_	8	192	5	96	48	7
TAP	9	0	2
TAP	9	0	3
STR	9	96	2
SI_	9	96	2	96	48	0
STR	9	96	3
SI_	9	96	3	96	48	5
TAP	9	288	4
TAP	9	288	5
STR	10	0	3
SI_	10	0	3	96	48	0
STR	10	0	4
SI_	10	0	4	96	48	7
STR	10	192	5
SCL	10	192	5	96	48	2
TAP	10	192	6
TAP	11	0	0
TAP	11	0	1
TAP	11	72	4
TAP	11	72	5
TAP	11	144	2
TAP	11	144	7
TAP	11	192	0
TAP	11	192	5
TAP	11	288	1
STR	11	288	2
SCR	11	288	2	96	48	5
TAP	12	96	6
TAP	12	96	7
TAP	12	168	2
TAP	12	168	3
TAP	12	240	0
TAP	12	240	5
TAP	12	288	2
TAP	12	288	7
HLD	13	0	4	48
TAP	13	48	3
HLD	13	96	4	48
TAP	13	144	7
HLD	13	192	4	48
TAP	13	240	2
HLD	13	288	4	48
TAP	13	336	5
HLD	14	0	4	48
TAP	14	48	3
TAP	14	96	2
TAP	14	96	5
HLD	14	192	3	48
TAP	14	240	4
HLD	14	288	3	48
TAP	14	336	0
HLD	15	0	3	48
TAP	15	48	5
HLD	15	96	3	48
TAP	15	144	2
HLD	15	192	3	48
TAP	15	240	4
TAP	15	288	2
TAP	15	288	5
HLD	16	0	4	48
TAP	16	48	3
HLD	16	96	4	48
TAP	16	144	7
HLD	16	192	4	48
TAP	16	240	5
HLD	16	288	4	48
TAP	16	336	1
HLD	17	0	4	48
TAP	17	48	3
TAP	17	96	1
TAP	17	96	5
HLD	17	192	3	48
TAP	17	240	4
HLD	17	288	3	48
TAP	17	336	0
HLD	18	0	3	48
TAP	18	48	2
HLD	18	96	3	48
TAP	18	144	6
HLD	18	192	3	48
TAP	18	240	4
TAP	18	288	2
TAP	18	288	6
HLD	19	0	6	72
HLD	19	72	0	72
HLD	19	144	2	72
HLD	19	216	4	72
TAP	19	288	5
TAP	19	312	4
TAP	19	336	5
HLD	20	0	1	72
HLD	20	72	7	72
HLD	20	144	5	72
HLD	20	216	3	72
TAP	20	288	2
TAP	20	312	3
TAP	20	336	2
HLD	21	0	6	72
HLD	21	72	0	72
HLD	21	144	2	72
HLD	21	216	4	72
TAP	21	288	5
TAP	21	312	4
TAP	21	336	5
STR	22	0	2
SI_	22	0	2	96	48	7
TAP	22	0	3
STR	22	96	5
SI_	22	96	5	96	48	0
STR	22	192	3
SI_	22	192	3	96	48	7
TAP	22	288	4
HLD	23	0	6	72
HLD	23	72	4	72
HLD	23	144	3	72
HLD	23	216	1	72
TAP	23	288	3
TAP	23	312	2
TAP	23	336	3
HLD	24	0	1	72
HLD	24	72	3	72
HLD	24	144	4	72
HLD	24	216	6	72
TAP	24	288	4
TAP	24	312	5
TAP	24	336	4
TAP	25	0	3
TAP	25	0	6
TAP	25	48	5
TAP	25	96	1
TAP	25	96	4
TAP	25	144	2
TAP	25	192	0
TAP	25	192	5
TAP	25	240	6
STR	25	288	2
SI_	25	288	2	96	48	6
STR	25	288	7
SI_	25	288	7	96	48	3
STR	26	96	0
SI_	26	96	0	96	48	4
STR	26	96	5
SI_	26	96	5	96	48	1
BRK	26	288	2
BRK	26	288	6
STR	27	0	0
SI_	27	0	0	96	48	3
STR	27	0	1
SI_	27	0	1	96	48	4
TAP	27	96	0
TAP	27	96	1
HLD	27	192	5	72
HLD	27	264	6	72
STR	27	336	7
SUL	27	336	7	96	96	1
TAP	28	48	0
TAP	28	96	0
HLD	28	192	2	72
HLD	28	264	1	72
STR	28	336	0
SUR	28	336	0	96	96	6
TAP	29	48	7
TAP	29	96	7
HLD	29	192	5	72
HLD	29	264	6	72
TAP	29	336	7
STR	30	0	3
SI_	30	0	3	96	48	1
TAP	30	48	3
STR	30	96	5
SI_	30	96	5	96	48	7
TAP	30	144	5
STR	30	192	4
SI_	30	192	4	96	48	0
TAP	30	240	4
TAP	30	288	5
STR	31	0	6
SI_	31	0	6	96	48	3
STR	31	0	7
SI_	31	0	7	96	48	4
TAP	31	96	6
TAP	31	96	7
HLD	31	192	2	72
HLD	31	264	1	72
STR	31	336	0
SUR	31	336	0	96	96	6
TAP	32	48	7
TAP	32	96	7
HLD	32	192	5	72
HLD	32	264	6	72
STR	32	336	7
SUL	32	336	7	96	96	1
TAP	33	48	0
TAP	33	96	0
HLD	33	192	2	72
HLD	33	264	0	72
TAP	33	336	7
STR	34	0	1
SI_	34	0	1	96	48	4
STR	34	0	6
SI_	34	0	6	96	48	3
TAP	34	96	1
TAP	34	96	6
STR	34	192	0
SI_	34	192	0	96	48	4
STR	34	192	7
SI_	34	192	7	96	48	3
TAP	34	288	0
TAP	34	288	7
STR	35	0	6
SI_	35	0	6	96	48	3
STR	35	0	7
SI_	35	0	7	96	48	4
TAP	35	96	6
TAP	35	96	7
HLD	35	192	2	72
HLD	35	264	1	72
STR	35	336	0
SUR	35	336	0	96	96	6
TAP	36	48	7
TAP	36	96	7
HLD	36	192	5	72
HLD	36	264	6	72
STR	36	336	7
SUL	36	336	7	96	96	1
TAP	37	48	0
TAP	37	96	0
HLD	37	192	2	72
HLD	37	264	1	72
TAP	37	336	0
STR	38	0	4
SI_	38	0	4	96	48	6
TAP	38	48	4
STR	38	96	2
SI_	38	96	2	96	48	0
TAP	38	144	2
STR	38	192	3
SI_	38	192	3	96	48	7
TAP	38	240	3
TAP	38	288	2
STR	39	0	0
SI_	39	0	0	96	48	3
STR	39	0	1
SI_	39	0	1	96	48	4
TAP	39	96	0
TAP	39	96	1
HLD	39	192	5	72
HLD	39	264	6	72
STR	39	336	7
SUL	39	336	7	96	96	1
TAP	40	48	0
TAP	40	96	0
HLD	40	192	2	72
HLD	40	264	1	72
STR	40	336	0
SUR	40	336	0	96	96	6
TAP	41	48	7
TAP	41	96	7
TAP	41	192	4
TAP	41	240	3
STR	41	288	1
SI_	41	288	1	96	48	4
STR	41	288	5
SI_	41	288	5	96	48	3
TAP	42	0	1
TAP	42	0	5
STR	42	96	2
SI_	42	96	2	96	48	4
STR	42	96	6
SI_	42	96	6	96	48	3
TAP	42	192	2
TAP	42	192	6
BST	42	288	0
SI_	42	288	0	96	48	5
BST	42	288	6
SI_	42	288	6	96	48	2
TAP	43	0	0
TAP	43	0	6
STR	43	96	1
SI_	43	96	1	96	48	5
STR	43	96	7
SI_	43	96	7	96	48	2
TAP	43	192	1
TAP	43	192	7
STR	43	288	0
SI_	43	288	0	96	48	5
STR	43	288	6
SI_	43	288	6	96	48	2
TAP	44	0	0
TAP	44	0	6
STR	44	96	1
SI_	44	96	1	96	48	5
STR	44	96	7
SI_	44	96	7	96	48	2
TAP	44	192	1
TAP	44	192	7
STR	44	288	0
SXL	44	288	0	96	144	0
STR	44	288	6
SXR	44	288	6	96	144	6
BRK	45	0	0
BRK	45	0	6
TAP	45	192	3
TAP	45	192	5
TAP	45	264	2
TAP	45	264	4
TAP	45	336	3
TAP	45	336	4
STR	46	0	1
SXR	46	0	1	96	144	6
TAP	46	0	6
TAP	46	288	2
TAP	46	288	4
TAP	46	360	3
TAP	46	360	5
TAP	47	48	3
TAP	47	48	4
HLD	47	96	1	96
TAP	47	96	6
TAP	47	192	3
TAP	47	360	5
TAP	48	24	5
TAP	48	48	4
TAP	48	96	2
TAP	48	96	7
TAP	48	192	0
TAP	48	192	5
TAP	48	240	2
TAP	48	264	3
TAP	48	288	2
TAP	48	336	5
TAP	48	360	4
TAP	49	0	5
TAP	49	48	2
TAP	49	72	3
TAP	49	96	2
TAP	49	144	5
TAP	49	168	4
TAP	49	192	6
TAP	49	240	2
TAP	49	264	3
TAP	49	288	1
TAP	49	336	5
TAP	49	360	4
TAP	50	0	6
TAP	50	48	2
TAP	50	72	3
STR	50	96	1
SCL	50	96	1	96	48	6
TAP	50	144	1
STR	50	192	5
SUR	50	192	5	96	48	1
TAP	50	240	5
STR	50	288	2
SCR	50	288	2	96	48	5
TAP	50	336	2
STR	51	0	6
SCR	51	0	6	96	48	1
TAP	51	48	6
TAP	51	96	2
TAP	51	144	2
STR	51	192	2
SI_	51	192	2	96	48	7
STR	51	192	3
SI_	51	192	3	96	48	6
TAP	51	288	2
TAP	51	288	3
STR	52	0	4
SI_	52	0	4	96	48	1
STR	52	0	5
SI_	52	0	5	96	48	0
TAP	52	96	4
TAP	52	96	5
STR	52	192	2
SI_	52	192	2	96	48	0
TAP	52	240	2
STR	52	288	4
SI_	52	288	4	96	48	6
TAP	52	336	4
STR	53	0	3
SI_	53	0	3	96	48	7
TAP	53	48	3
TAP	53	96	4
TAP	53	144	4
STR	53	192	4
SI_	53	192	4	96	48	1
STR	53	192	5
SI_	53	192	5	96	48	0
TAP	53	288	4
TAP	53	288	5
TAP	54	0	2
TAP	54	0	3
TAP	54	48	2
STR	54	96	6
SCR	54	96	6	96	48	1
TAP	54	144	6
STR	54	192	2
SUL	54	192	2	96	48	6
TAP	54	240	2
STR	54	288	5
SCL	54	288	5	96	48	2
TAP	54	336	5
STR	55	0	1
SCL	55	0	1	96	48	6
TAP	55	48	1
STR	55	96	4
SSL	55	96	4	96	576	0
TAP	55	144	4
TAP	57	96	1
TAP	57	96	6
TAP	57	192	0
TAP	57	208	7
TAP	57	224	0
TAP	57	240	7
TAP	57	256	0
TAP	57	272	7
TAP	57	288	0
TAP	57	304	7
TAP	57	320	0
TAP	57	336	7
TAP	57	352	0
TAP	57	368	7
STR	58	0	0
SF_	58	0	0	96	96	4
TAP	58	16	7
TAP	58	32	0
TAP	58	48	7
TAP	58	64	0
TAP	58	80	7
TAP	58	96	0
BRK	58	288	7
STR	59	192	1
SCL	59	192	1	96	48	6
STR	59	192	7
SI_	59	192	7	96	48	3
TAP	59	288	1
TAP	59	288	7
HLD	60	0	4	72
HLD	60	72	3	72
STR	60	144	2
SUR	60	144	2	96	96	0
TAP	60	240	0
TAP	60	288	1
TAP	60	336	2
HLD	61	0	2	72
HLD	61	72	4	72
STR	61	144	5
SUL	61	144	5	96	96	7
TAP	61	240	7
TAP	61	288	6
TAP	61	336	5
HLD	62	0	5	72
HLD	62	72	3	72
TAP	62	144	2
STR	62	192	3
SI_	62	192	3	96	48	7
TAP	62	240	3
STR	62	288	4
SI_	62	288	4	96	48	6
TAP	62	336	4
STR	63	0	2
SI_	63	0	2	96	48	0
TAP	63	48	2
TAP	63	96	3
STR	63	192	0
SI_	63	192	0	96	48	4
STR	63	192	6
SCR	63	192	6	96	48	1
TAP	63	288	0
TAP	63	288	6
HLD	64	0	3	72
HLD	64	72	4	72
STR	64	144	5
SUL	64	144	5	96	96	7
TAP	64	240	7
TAP	64	288	6
TAP	64	336	5
HLD	65	0	5	72
HLD	65	72	3	72
STR	65	144	2
SUR	65	144	2	96	96	0
TAP	65	240	0
TAP	65	288	1
TAP	65	336	2
HLD	66	0	4	72
HLD	66	72	3	72
TAP	66	144	4
STR	66	192	2
SI_	66	192	2	96	48	7
STR	66	192	5
SI_	66	192	5	96	48	0
TAP	66	288	2
TAP	66	288	5
STR	67	0	3
SI_	67	0	3	96	48	7
STR	67	0	4
SI_	67	0	4	96	48	0
TAP	67	96	3
TAP	67	96	4
STR	67	192	6
SCR	67	192	6	96	48	1
STR	67	192	7
SI_	67	192	7	96	48	3
TAP	67	288	6
TAP	67	288	7
HLD	68	0	3	72
HLD	68	72	4	72
STR	68	144	5
SUL	68	144	5	96	96	0
TAP	68	240	0
TAP	68	288	7
TAP	68	336	6
HLD	69	0	6	72
HLD	69	72	4	72
STR	69	144	2
SUR	69	144	2	96	96	7
TAP	69	240	7
TAP	69	288	0
TAP	69	336	1
HLD	70	0	1	72
HLD	70	72	4	72
TAP	70	144	5
STR	70	192	4
SI_	70	192	4	96	48	0
TAP	70	240	4
STR	70	288	3
SI_	70	288	3	96	48	1
TAP	70	336	3
STR	71	0	5
SI_	71	0	5	96	48	7
TAP	71	48	5
TAP	71	96	4
STR	71	192	0
SI_	71	192	0	96	48	4
STR	71	192	1
SCL	71	192	1	96	48	6
TAP	71	288	0
TAP	71	288	1
HLD	72	0	4	72
HLD	72	72	3	72
STR	72	144	2
SUR	72	144	2	96	96	7
TAP	72	240	7
TAP	72	288	0
TAP	72	336	1
HLD	73	0	1	72
HLD	73	72	3	72
STR	73	144	5
SUL	73	144	5	96	96	0
TAP	73	240	0
TAP	73	288	7
TAP	73	336	6
HLD	74	0	3	72
HLD	74	72	4	72
TAP	74	144	3
STR	74	192	2
SI_	74	192	2	96	48	7
STR	74	192	5
SI_	74	192	5	96	48	0
TAP	74	288	2
TAP	74	288	5
STR	75	0	3
SI_	75	0	3	96	48	7
STR	75	0	4
SI_	75	0	4	96	48	0
TAP	75	96	3
TAP	75	96	4
BRK	75	192	1
BST	75	192	5
SI_	75	192	5	96	48	0
TAP	75	288	4
TAP	76	0	0
STR	76	0	5
SI_	76	0	5	96	48	0
TAP	76	96	4
TAP	76	192	0
STR	76	192	5
SI_	76	192	5	96	48	0
TAP	76	288	4
STR	77	0	1
SI_	77	0	1	96	48	4
TAP	77	0	4
TAP	77	96	0
TAP	77	192	0
TAP	77	192	5
TAP	77	288	3
TAP	77	288	7
TAP	78	0	2
TAP	78	0	5
TAP	78	32	2
TAP	78	32	5
TAP	78	64	2
TAP	78	64	5
TAP	78	96	2
STR	78	96	5
SI_	78	96	5	96	48	7
STR	78	192	3
SI_	78	192	3	96	48	1
STR	78	288	4
SI_	78	288	4	96	48	0
STR	79	0	3
SI_	79	0	3	96	48	7
TAP	79	96	4
STR	79	192	6
SI_	79	192	6	96	48	0
STR	79	288	4
SI_	79	288	4	96	48	2
STR	80	0	5
SI_	80	0	5	96	48	1
STR	80	96	0
SV_	80	96	0	96	48	3
SV_	80	96	0	96	48	5
STR	80	288	2
SV_	80	288	2	96	48	0
STR	80	288	6
SV_	80	288	6	96	48	4
STR	81	96	7
SV_	81	96	7	96	48	2
SV_	81	96	7	96	48	4
TAP	81	288	4
TAP	81	336	3
TAP	82	0	1
TAP	82	0	5
STR	82	96	2
SI_	82	96	2	96	48	4
STR	82	96	6
SI_	82	96	6	96	48	3
TAP	82	192	2
TAP	82	192	6
STR	82	288	1
SI_	82	288	1	96	48	4
STR	82	288	5
SI_	82	288	5	96	48	3
TAP	83	0	1
TAP	83	0	5
BST	83	96	1
SI_	83	96	1	96	48	5
BST	83	96	7
SI_	83	96	7	96	48	2
TAP	83	192	1
TAP	83	192	7
STR	83	288	0
SI_	83	288	0	96	48	5
STR	83	288	6
SI_	83	288	6	96	48	2
TAP	84	0	0
TAP	84	0	6
STR	84	96	1
SI_	84	96	1	96	48	5
STR	84	96	7
SI_	84	96	7	96	48	2
TAP	84	192	1
TAP	84	192	7
STR	84	288	0
SI_	84	288	0	96	48	5
STR	84	288	6
SI_	84	288	6	96	48	2
TAP	85	0	0
TAP	85	0	6
STR	85	96	1
SXL	85	96	1	96	144	1
STR	85	96	7
SXR	85	96	7	96	144	7
BRK	85	192	1
BRK	85	192	7
TAP	86	0	3
TAP	86	0	4
TAP	86	72	1
TAP	86	72	3
TAP	86	144	0
TAP	86	144	2
TAP	86	192	0
STR	86	192	6
SUL	86	192	6	96	144	4
TAP	87	96	3
TAP	87	96	4
TAP	87	168	4
TAP	87	168	6
TAP	87	240	5
TAP	87	240	7
STR	87	288	1
SUR	87	288	1	96	144	3
TAP	87	288	7
TAP	88	192	4
TAP	88	192	5
TAP	88	264	1
TAP	88	264	4
TAP	88	336	0
TAP	88	336	2
TAP	89	0	0
STR	89	0	6
SUL	89	0	6	96	144	4
TAP	89	288	2
TAP	89	288	3
TAP	89	360	4
TAP	89	360	5
STR	90	0	4
SI_	90	0	4	96	48	1
STR	90	0	5
SI_	90	0	5	96	48	0
BRK	90	96	4
BRK	90	96	5

T_REC_TAP	340
T_REC_BRK	10
T_REC_XTP	0
T_REC_HLD	87
T_REC_XHO	0
T_REC_STR	152
T_REC_BST	5
T_REC_XST	0
T_REC_TTP	0
T_REC_THO	0
T_REC_SLD	159
T_REC_ALL	753
T_NUM_TAP	492
T_NUM_BRK	15
T_NUM_HLD	87
T_NUM_SLD	159
T_NUM_ALL	753
T_JUDGE_TAP	507
T_JUDGE_HLD	154
T_JUDGE_SLD	159
T_JUDGE_ALL	820
TTM_EACHPAIRS	143
TTM_SCR_TAP	246000
TTM_SCR_BRK	39000
TTM_SCR_HLD	87000
TTM_SCR_SLD	238500
TTM_SCR_ALL	610500
TTM_SCR_S	590750
TTM_SCR_SS	609000
TTM_RAT_ACV	10024

