VERSION	0.00.00	1.03.00
FES_MODE	0
BPM_DEF	160.000	160.000	160.000	160.000
MET_DEF	4	4
RESOLUTION	384
CLK_DEF	384
COMPATIBLE_CODE	MA2

BPM	0	0	160.000
MET	0	0	4	4
MET	1	0	4	6
MET	2	192	4	4
MET	10	192	4	5
MET	13	0	4	6
MET	19	0	4	4
MET	45	0	4	5
MET	47	192	4	4
MET	85	192	4	5

HLD	1	192	2	192
TAP	1	192	4
TAP	1	288	3
TAP	2	0	1
TAP	2	192	3
HLD	2	192	5	192
TAP	2	288	4
TAP	3	0	6
HLD	3	192	1	192
TAP	3	192	3
TAP	3	288	2
TAP	4	0	0
TAP	4	192	4
HLD	4	192	6	192
TAP	4	288	5
TAP	5	0	7
TAP	5	96	0
TAP	5	96	5
HLD	5	192	2	96
TAP	5	192	4
TAP	5	288	3
TAP	6	0	3
HLD	6	0	5	96
TAP	6	96	4
HLD	6	192	1	192
TAP	6	192	7
TAP	6	288	0
TAP	7	0	2
TAP	7	192	0
HLD	7	192	6	192
TAP	7	288	7
TAP	8	0	5
BRK	8	96	0
BRK	8	96	7
TAP	8	192	0
HLD	8	192	2	192
TAP	8	288	1
TAP	9	0	3
HLD	9	192	5	192
TAP	9	192	7
TAP	9	288	6
TAP	10	0	4
BRK	10	96	0
BRK	10	96	7
TAP	10	192	0
TAP	10	192	1
STR	10	288	0
SUR	10	288	0	96	96	5
STR	10	288	1
SCR	10	288	1	96	96	4
TAP	11	192	0
TAP	11	192	7
TAP	11	288	6
TAP	11	288	7
STR	12	0	6
SCL	12	0	6	96	96	3
STR	12	0	7
SUL	12	0	7	96	96	2
TAP	12	288	0
TAP	12	288	7
TAP	13	0	4
TAP	13	96	2
TAP	13	192	0
TAP	13	192	1
HLD	13	288	6	192
TAP	13	288	7
TAP	14	48	4
TAP	14	96	4
TAP	14	192	3
TAP	14	288	5
TAP	15	0	6
TAP	15	0	7
TAP	15	96	0
HLD	15	96	1	192
TAP	15	240	3
TAP	15	288	3
TAP	16	0	4
TAP	16	0	5
TAP	16	96	3
TAP	16	96	6
TAP	16	192	2
TAP	16	192	3
TAP	16	288	1
HLD	16	288	4	192
TAP	17	48	6
TAP	17	96	6
TAP	17	192	2
TAP	17	192	3
STR	17	288	1
SCL	17	288	1	96	96	6
STR	17	288	2
SUL	17	288	2	96	96	5
TAP	18	240	0
TAP	18	288	7
STR	19	0	1
SCR	19	0	1	96	96	4
STR	19	0	5
SCR	19	0	5	96	96	0
TAP	19	288	2
TAP	19	288	6
STR	20	0	2
SCL	20	0	2	96	96	7
STR	20	0	6
SCL	20	0	6	96	96	3
TAP	20	288	1
TAP	20	288	5
STR	21	0	1
SI_	21	0	1	96	96	4
STR	21	0	5
SI_	21	0	5	96	96	0
TAP	21	288	2
TAP	21	288	7
TAP	22	0	0
TAP	22	0	5
TAP	22	96	4
TAP	22	96	5
TAP	22	192	2
TAP	22	192	3
TAP	22	288	0
TAP	22	288	7
STR	23	0	0
SUR	23	0	0	96	96	5
STR	23	0	4
SUR	23	0	4	96	96	1
TAP	23	288	3
TAP	23	288	4
STR	24	0	3
SUL	24	0	3	96	96	6
STR	24	0	7
SUL	24	0	7	96	96	2
TAP	24	288	3
TAP	24	288	4
STR	25	0	1
SI_	25	0	1	96	48	4
STR	25	192	6
SI_	25	192	6	96	48	3
TAP	26	0	0
TAP	26	0	1
TAP	26	96	6
TAP	26	96	7
TAP	26	192	3
TAP	26	192	4
TAP	26	288	1
TAP	26	288	6
TAP	27	0	2
TAP	27	0	3
TAP	27	96	0
TAP	27	96	5
HLD	27	192	6	72
HLD	27	264	5	72
TAP	27	336	4
TAP	28	48	2
TAP	28	96	3
TAP	28	144	1
HLD	28	192	1	72
HLD	28	264	2	72
TAP	28	336	3
TAP	29	48	3
TAP	29	96	4
TAP	29	144	3
TAP	29	192	2
TAP	29	192	5
TAP	29	264	0
TAP	29	264	7
TAP	29	336	1
TAP	29	336	6
TAP	30	0	1
BST	30	0	6
SI_	30	0	6	96	48	3
BST	30	192	1
SI_	30	192	1	96	48	4
TAP	30	192	6
TAP	31	0	4
TAP	31	0	5
TAP	31	96	2
TAP	31	96	7
HLD	31	192	1	72
HLD	31	264	2	72
TAP	31	336	3
TAP	32	48	5
TAP	32	96	4
TAP	32	144	6
HLD	32	192	6	72
HLD	32	264	5	72
TAP	32	336	4
TAP	33	48	2
TAP	33	96	3
TAP	33	144	2
TAP	33	192	5
TAP	33	240	4
TAP	33	288	3
TAP	33	288	6
STR	34	0	6
SI_	34	0	6	96	48	2
STR	34	192	1
SI_	34	192	1	96	48	5
TAP	35	0	4
TAP	35	0	5
TAP	35	96	2
TAP	35	96	7
HLD	35	192	1	72
HLD	35	264	2	72
TAP	35	336	3
TAP	36	48	5
TAP	36	96	4
TAP	36	144	6
HLD	36	192	6	72
HLD	36	264	5	72
TAP	36	336	4
TAP	37	48	4
TAP	37	96	3
TAP	37	144	4
TAP	37	192	2
TAP	37	192	5
TAP	37	264	0
TAP	37	264	7
TAP	37	336	1
TAP	37	336	6
BST	38	0	1
SI_	38	0	1	96	48	4
TAP	38	0	6
TAP	38	192	1
BST	38	192	6
SI_	38	192	6	96	48	3
TAP	39	0	2
TAP	39	0	3
TAP	39	96	0
TAP	39	96	5
HLD	39	192	6	72
HLD	39	264	5	72
TAP	39	336	4
TAP	40	48	2
TAP	40	96	3
TAP	40	144	1
HLD	40	192	1	72
HLD	40	264	2	72
TAP	40	336	3
TAP	41	48	5
TAP	41	96	4
TAP	41	144	5
TAP	41	192	2
TAP	41	240	3
TAP	41	288	1
TAP	41	288	4
TAP	42	0	6
TAP	42	0	7
TAP	42	96	0
TAP	42	96	1
TAP	42	192	3
TAP	42	192	4
TAP	42	288	1
TAP	42	288	6
TAP	43	0	0
TAP	43	0	1
TAP	43	96	6
TAP	43	96	7
TAP	43	192	2
TAP	43	192	3
TAP	43	288	4
TAP	43	288	5
TAP	44	0	0
TAP	44	0	1
TAP	44	96	6
TAP	44	96	7
TAP	44	192	0
TAP	44	192	1
TAP	44	288	3
TAP	44	288	4
BST	45	0	1
SCR	45	0	1	96	192	6
BRK	45	0	6
BRK	46	0	0
STR	46	96	6
SCL	46	96	6	96	192	1
BRK	47	96	7
HLD	47	192	3	96
TAP	47	288	4
HLD	48	0	4	96
TAP	48	96	3
HLD	48	192	2	96
TAP	48	288	3
HLD	49	0	5	96
TAP	49	96	4
HLD	49	192	1	96
TAP	49	288	3
HLD	50	0	6	96
TAP	50	96	4
BST	50	192	3
SI_	50	192	3	96	48	7
BST	50	192	4
SI_	50	192	4	96	48	6
BST	51	0	3
SI_	51	0	3	96	48	1
BST	51	0	4
SI_	51	0	4	96	48	0
HLD	51	192	7	96
TAP	51	288	0
HLD	52	0	0	96
TAP	52	96	7
HLD	52	192	6	96
TAP	52	288	7
HLD	53	0	1	96
TAP	53	96	0
HLD	53	192	5	96
TAP	53	288	7
HLD	54	0	2	96
TAP	54	96	0
BST	54	192	4
SI_	54	192	4	96	48	0
BST	54	192	5
SI_	54	192	5	96	48	0
BST	55	0	2
SI_	55	0	2	96	48	7
BST	55	0	3
SI_	55	0	3	96	48	7
HLD	55	192	1	96
HLD	55	288	0	96
HLD	56	0	7	96
HLD	56	96	6	96
HLD	56	192	5	96
HLD	56	288	4	96
HLD	57	0	3	96
HLD	57	96	2	768
TAP	57	192	1
TAP	57	288	1
TAP	58	0	0
TAP	58	96	7
HLD	58	192	6	288
TAP	59	192	6
TAP	59	192	7
TAP	59	288	1
TAP	59	288	4
HLD	60	0	2	72
HLD	60	72	1	72
TAP	60	144	0
TAP	60	240	6
TAP	60	288	7
TAP	60	336	5
HLD	61	0	5	72
HLD	61	72	6	72
TAP	61	144	7
TAP	61	240	7
TAP	61	288	0
TAP	61	336	7
TAP	62	0	1
TAP	62	0	6
TAP	62	72	3
TAP	62	72	4
TAP	62	144	2
TAP	62	144	5
BST	62	192	2
SI_	62	192	2	96	48	7
BST	62	192	5
SI_	62	192	5	96	48	7
BST	63	0	2
SI_	63	0	2	96	48	0
BST	63	0	5
SI_	63	0	5	96	48	0
TAP	63	192	0
TAP	63	192	1
TAP	63	288	3
TAP	63	288	6
HLD	64	0	5	72
HLD	64	72	6	72
TAP	64	144	7
TAP	64	240	1
TAP	64	288	0
TAP	64	336	2
HLD	65	0	2	72
HLD	65	72	1	72
TAP	65	144	0
TAP	65	240	6
TAP	65	288	7
TAP	65	336	6
TAP	66	0	1
TAP	66	48	0
TAP	66	96	2
TAP	66	96	7
STR	66	192	2
SI_	66	192	2	96	48	7
STR	67	0	5
SI_	67	0	5	96	48	0
TAP	67	192	0
TAP	67	192	1
TAP	67	288	3
TAP	67	288	6
HLD	68	0	5	72
HLD	68	72	6	72
TAP	68	144	7
TAP	68	240	1
TAP	68	288	0
TAP	68	336	2
HLD	69	0	2	72
HLD	69	72	1	72
TAP	69	144	0
TAP	69	240	0
TAP	69	288	7
TAP	69	336	0
TAP	70	0	1
TAP	70	0	6
TAP	70	72	3
TAP	70	72	4
TAP	70	144	2
TAP	70	144	5
BST	70	192	2
SI_	70	192	2	96	48	0
BST	70	192	5
SI_	70	192	5	96	48	0
BST	71	0	2
SI_	71	0	2	96	48	7
BST	71	0	5
SI_	71	0	5	96	48	7
TAP	71	192	6
TAP	71	192	7
TAP	71	288	1
TAP	71	288	4
HLD	72	0	2	72
HLD	72	72	1	72
TAP	72	144	0
TAP	72	240	6
TAP	72	288	7
TAP	72	336	5
HLD	73	0	5	72
HLD	73	72	6	72
TAP	73	144	7
TAP	73	240	1
TAP	73	288	0
TAP	73	336	1
TAP	74	0	6
TAP	74	48	7
TAP	74	96	0
TAP	74	96	5
TAP	74	192	4
TAP	74	192	6
TAP	74	288	1
TAP	74	288	3
TAP	75	0	4
TAP	75	0	6
TAP	75	96	3
TAP	75	96	4
BRK	75	192	1
BRK	75	192	6
TAP	75	288	4
TAP	75	288	5
TAP	76	0	1
TAP	76	0	6
TAP	76	96	2
TAP	76	96	3
TAP	76	192	1
TAP	76	192	6
TAP	76	288	4
TAP	76	288	5
TAP	77	0	6
TAP	77	48	7
TAP	77	96	6
TAP	77	144	7
TAP	77	240	2
TAP	77	240	3
TAP	77	288	2
TAP	77	288	3
TAP	78	0	1
TAP	78	48	0
TAP	78	96	1
TAP	78	144	0
TAP	78	192	3
TAP	78	192	4
BRK	78	288	1
BRK	78	288	7
TAP	79	0	3
TAP	79	0	4
BRK	79	96	0
BRK	79	96	6
TAP	79	192	6
TAP	79	192	7
TAP	79	288	1
TAP	79	288	4
HLD	80	0	0	72
HLD	80	72	6	72
TAP	80	144	4
TAP	80	240	5
TAP	80	288	4
TAP	80	336	7
HLD	81	0	7	72
HLD	81	72	1	72
TAP	81	144	3
TAP	81	240	2
TAP	81	288	3
TAP	81	336	2
TAP	82	0	5
TAP	82	48	4
TAP	82	96	3
TAP	82	96	6
TAP	82	192	0
TAP	82	192	2
TAP	82	288	5
TAP	82	288	7
TAP	83	0	0
TAP	83	0	7
TAP	83	96	2
TAP	83	96	5
TAP	83	192	4
TAP	83	192	6
TAP	83	288	1
TAP	83	288	3
TAP	84	0	5
TAP	84	0	7
TAP	84	96	0
TAP	84	96	2
TAP	84	192	4
TAP	84	192	6
TAP	84	288	1
TAP	84	288	3
TAP	85	0	4
TAP	85	0	6
TAP	85	96	0
TAP	85	96	7
BST	85	192	2
SCL	85	192	2	96	192	5
BRK	85	192	5
BRK	86	192	3
STR	86	288	5
SCR	86	288	5	96	192	2
BRK	87	288	4
STR	88	0	2
SCL	88	0	2	96	192	5
STR	88	0	3
SUL	88	0	3	96	192	4
BRK	89	0	3
STR	89	96	4
SUR	89	96	4	96	96	1
STR	89	96	5
SCR	89	96	5	96	96	0
BST	90	0	4
SF_	90	0	4	96	96	0

T_REC_TAP	345
T_REC_BRK	17
T_REC_XTP	0
T_REC_HLD	70
T_REC_XHO	0
T_REC_STR	28
T_REC_BST	23
T_REC_XST	0
T_REC_TTP	0
T_REC_THO	0
T_REC_SLD	51
T_REC_ALL	534
T_NUM_TAP	373
T_NUM_BRK	40
T_NUM_HLD	70
T_NUM_SLD	51
T_NUM_ALL	534
T_JUDGE_TAP	413
T_JUDGE_HLD	180
T_JUDGE_SLD	51
T_JUDGE_ALL	644
TTM_EACHPAIRS	138
TTM_SCR_TAP	186500
TTM_SCR_BRK	104000
TTM_SCR_HLD	70000
TTM_SCR_SLD	76500
TTM_SCR_ALL	437000
TTM_SCR_S	420050
TTM_SCR_SS	433000
TTM_RAT_ACV	10092

