VERSION	0.00.00	1.03.00
FES_MODE	0
BPM_DEF	160.000	160.000	160.000	160.000
MET_DEF	4	4
RESOLUTION	384
CLK_DEF	384
COMPATIBLE_CODE	MA2

BPM	0	0	160.000
MET	0	0	4	4
MET	1	0	4	6
MET	2	192	4	4
MET	10	192	4	5
MET	13	0	4	6
MET	19	0	4	4
MET	45	0	4	5
MET	47	192	4	4
MET	85	192	4	5

HLD	1	192	2	192
TAP	2	0	3
TAP	2	192	2
TAP	2	288	2
TAP	3	0	3
HLD	3	192	5	192
TAP	4	0	4
TAP	4	192	5
TAP	4	288	5
TAP	5	0	4
HLD	5	192	2	192
HLD	6	0	3	192
HLD	6	192	4	192
TAP	7	0	5
TAP	7	192	5
TAP	7	288	4
TAP	8	0	5
HLD	8	192	2	192
TAP	9	0	3
TAP	9	192	2
TAP	9	288	3
TAP	10	0	2
STR	10	192	5
SI_	10	192	5	96	96	0
TAP	11	192	2
STR	11	288	2
SI_	11	288	2	96	96	7
TAP	12	288	5
TAP	13	0	5
TAP	13	96	5
TAP	13	192	4
TAP	13	288	4
TAP	14	96	4
TAP	14	96	5
TAP	14	192	2
TAP	14	288	2
TAP	15	0	3
TAP	15	96	3
TAP	15	288	2
TAP	15	288	3
TAP	16	0	5
TAP	16	96	5
TAP	16	192	4
TAP	16	288	4
TAP	17	96	4
TAP	17	96	6
TAP	17	192	2
TAP	17	288	2
TAP	18	0	3
TAP	18	96	3
TAP	18	288	1
TAP	18	288	3
HLD	19	0	2	96
TAP	19	96	3
TAP	19	192	1
TAP	19	192	4
HLD	20	0	5	96
TAP	20	96	4
TAP	20	192	3
TAP	20	192	6
HLD	21	0	2	96
TAP	21	96	3
TAP	21	192	1
TAP	21	192	4
TAP	22	0	4
TAP	22	0	5
TAP	22	96	3
TAP	22	96	6
TAP	22	192	2
TAP	22	192	7
HLD	23	0	1	96
TAP	23	96	0
TAP	23	192	2
TAP	23	192	7
HLD	24	0	6	96
TAP	24	96	7
TAP	24	192	0
TAP	24	192	5
TAP	25	0	3
TAP	25	96	3
TAP	25	192	4
TAP	25	288	4
TAP	26	0	3
TAP	26	0	4
TAP	26	96	3
TAP	26	96	4
TAP	26	192	1
TAP	26	192	6
TAP	26	288	1
TAP	26	288	6
TAP	27	0	2
TAP	27	96	2
TAP	27	192	2
TAP	27	192	3
TAP	27	288	2
TAP	27	288	3
TAP	28	0	2
TAP	28	96	3
TAP	28	192	1
TAP	28	192	4
TAP	29	0	5
TAP	29	96	5
TAP	29	192	4
TAP	29	192	5
TAP	29	288	4
TAP	29	288	5
TAP	30	0	5
TAP	30	96	4
TAP	30	192	3
TAP	30	192	6
TAP	30	288	3
TAP	30	288	6
TAP	31	0	2
TAP	31	96	2
TAP	31	192	2
TAP	31	192	3
TAP	31	288	2
TAP	31	288	3
TAP	32	0	2
TAP	32	96	3
TAP	32	192	1
TAP	32	192	4
TAP	32	288	1
TAP	32	288	4
TAP	33	0	0
TAP	33	96	0
TAP	33	192	7
TAP	33	288	7
TAP	34	0	6
TAP	34	0	7
TAP	34	96	6
TAP	34	96	7
TAP	34	192	0
TAP	34	192	5
TAP	35	0	5
TAP	35	96	5
TAP	35	192	4
TAP	35	192	6
TAP	35	288	4
TAP	35	288	6
TAP	36	0	5
TAP	36	96	4
TAP	36	96	5
TAP	36	192	3
TAP	36	192	6
TAP	37	0	2
TAP	37	96	2
TAP	37	192	1
TAP	37	192	3
TAP	37	288	1
TAP	37	288	3
TAP	38	0	2
TAP	38	96	2
TAP	38	96	3
TAP	38	192	1
TAP	38	192	4
TAP	38	288	1
TAP	38	288	4
TAP	39	0	5
TAP	39	96	5
TAP	39	192	4
TAP	39	192	6
TAP	39	288	4
TAP	39	288	6
TAP	40	0	5
TAP	40	96	4
TAP	40	96	5
TAP	40	192	3
TAP	40	192	6
TAP	40	288	3
TAP	40	288	6
TAP	41	0	7
TAP	41	96	7
TAP	41	192	0
TAP	41	288	0
TAP	42	0	0
TAP	42	0	1
TAP	42	96	0
TAP	42	96	1
TAP	42	192	2
TAP	42	192	7
TAP	43	0	0
TAP	43	0	7
TAP	43	96	0
TAP	43	96	7
TAP	43	192	0
TAP	43	192	1
TAP	43	288	0
TAP	43	288	1
TAP	44	0	0
TAP	44	0	7
TAP	44	96	0
TAP	44	96	7
TAP	44	192	6
TAP	44	192	7
TAP	44	288	6
TAP	44	288	7
BST	45	0	0
SI_	45	0	0	96	96	3
BST	45	0	7
SI_	45	0	7	96	96	4
TAP	46	0	3
TAP	46	0	4
STR	46	96	3
SI_	46	96	3	96	96	0
STR	46	96	4
SI_	46	96	4	96	96	7
TAP	47	96	0
TAP	47	96	7
TAP	47	192	1
TAP	47	192	6
TAP	47	288	2
TAP	47	288	5
TAP	48	0	3
TAP	48	0	4
TAP	48	192	2
TAP	48	288	2
TAP	48	288	3
TAP	49	0	2
TAP	49	96	2
TAP	49	96	3
TAP	49	192	5
TAP	49	288	4
TAP	49	288	5
TAP	50	0	5
TAP	50	96	4
TAP	50	96	5
TAP	50	192	4
TAP	50	192	5
TAP	50	288	3
TAP	50	288	6
TAP	51	0	2
TAP	51	0	7
TAP	51	96	0
TAP	51	96	1
STR	51	192	0
SI_	51	192	0	96	96	5
STR	51	192	1
SI_	51	192	1	96	96	4
TAP	52	192	5
TAP	52	288	4
TAP	52	288	5
TAP	53	0	5
TAP	53	96	4
TAP	53	96	5
TAP	53	192	2
TAP	53	288	2
TAP	53	288	3
TAP	54	0	2
TAP	54	96	2
TAP	54	96	3
TAP	54	192	2
TAP	54	192	3
TAP	54	288	1
TAP	54	288	4
TAP	55	0	0
TAP	55	0	5
TAP	55	96	6
TAP	55	96	7
STR	55	192	0
SCR	55	192	0	96	384	7
HLD	57	96	1	384
HLD	57	96	6	384
TAP	59	192	1
TAP	59	288	0
TAP	59	288	1
TAP	60	0	6
TAP	60	96	6
TAP	60	96	7
TAP	60	192	1
TAP	60	288	0
TAP	60	288	1
TAP	61	0	3
TAP	61	0	6
TAP	61	96	4
TAP	61	96	5
TAP	61	192	6
TAP	61	288	6
TAP	61	288	7
TAP	62	0	1
TAP	62	96	0
TAP	62	96	1
TAP	62	192	0
TAP	62	192	1
TAP	62	288	2
TAP	62	288	7
TAP	63	0	3
TAP	63	0	6
TAP	63	96	4
TAP	63	96	5
TAP	63	192	6
TAP	63	288	6
TAP	63	288	7
TAP	64	0	1
TAP	64	96	0
TAP	64	96	1
TAP	64	192	6
TAP	64	288	6
TAP	64	288	7
TAP	65	0	1
TAP	65	0	4
TAP	65	96	1
TAP	65	96	4
TAP	65	192	2
TAP	65	288	2
TAP	65	288	3
TAP	66	0	5
TAP	66	96	4
TAP	66	96	5
TAP	66	192	3
TAP	66	192	6
TAP	66	288	3
TAP	66	288	6
TAP	67	0	0
TAP	67	0	1
TAP	67	192	6
TAP	67	288	6
TAP	67	288	7
TAP	68	0	1
TAP	68	96	0
TAP	68	96	1
TAP	68	192	6
TAP	68	288	6
TAP	68	288	7
TAP	69	0	1
TAP	69	0	4
TAP	69	96	2
TAP	69	96	3
TAP	69	192	1
TAP	69	288	0
TAP	69	288	1
TAP	70	0	6
TAP	70	96	6
TAP	70	96	7
TAP	70	192	6
TAP	70	192	7
TAP	70	288	0
TAP	70	288	5
TAP	71	0	1
TAP	71	0	4
TAP	71	96	2
TAP	71	96	3
TAP	71	192	1
TAP	71	288	0
TAP	71	288	1
TAP	72	0	6
TAP	72	96	6
TAP	72	96	7
TAP	72	192	1
TAP	72	288	0
TAP	72	288	1
TAP	73	0	3
TAP	73	0	6
TAP	73	96	3
TAP	73	96	6
TAP	73	192	5
TAP	73	288	4
TAP	73	288	5
TAP	74	0	2
TAP	74	96	2
TAP	74	96	3
TAP	74	192	1
TAP	74	192	4
TAP	74	288	1
TAP	74	288	4
TAP	75	0	6
TAP	75	0	7
HLD	75	192	5	96
TAP	75	288	4
HLD	76	0	2	96
TAP	76	96	3
HLD	76	192	5	96
TAP	76	288	4
TAP	77	0	3
TAP	77	0	6
TAP	77	96	3
TAP	77	96	6
HLD	77	192	2	96
TAP	77	288	3
HLD	78	0	5	96
TAP	78	96	4
TAP	78	192	3
TAP	78	192	6
TAP	78	288	3
TAP	78	288	6
TAP	79	0	0
TAP	79	0	7
TAP	79	96	0
TAP	79	96	7
HLD	79	192	2	96
TAP	79	288	3
HLD	80	0	5	96
TAP	80	96	4
HLD	80	192	2	96
TAP	80	288	3
TAP	81	0	1
TAP	81	0	4
TAP	81	96	1
TAP	81	96	4
HLD	81	192	5	96
TAP	81	288	4
HLD	82	0	2	96
TAP	82	96	3
TAP	82	192	1
TAP	82	192	4
TAP	82	288	1
TAP	82	288	4
TAP	83	0	0
TAP	83	0	7
TAP	83	192	0
TAP	83	192	7
TAP	83	288	0
TAP	83	288	7
TAP	84	0	6
TAP	84	0	7
TAP	84	96	6
TAP	84	96	7
TAP	84	192	0
TAP	84	192	7
TAP	84	288	0
TAP	84	288	7
TAP	85	0	0
TAP	85	0	1
TAP	85	96	0
TAP	85	96	1
BST	85	192	0
SI_	85	192	0	96	96	3
BST	85	192	7
SI_	85	192	7	96	96	4
TAP	86	192	2
TAP	86	192	3
STR	86	288	2
SI_	86	288	2	96	96	7
STR	86	288	3
SI_	86	288	3	96	96	6
TAP	87	288	4
TAP	87	288	5
STR	88	0	4
SI_	88	0	4	96	96	1
STR	88	0	5
SI_	88	0	5	96	96	0
TAP	89	0	3
TAP	89	0	4
STR	89	96	3
SCL	89	96	3	96	96	0
STR	89	96	4
SCR	89	96	4	96	96	7
BRK	90	96	1
BRK	90	96	6

T_REC_TAP	390
T_REC_BRK	2
T_REC_XTP	0
T_REC_HLD	23
T_REC_XHO	0
T_REC_STR	13
T_REC_BST	4
T_REC_XST	0
T_REC_TTP	0
T_REC_THO	0
T_REC_SLD	17
T_REC_ALL	449
T_NUM_TAP	403
T_NUM_BRK	6
T_NUM_HLD	23
T_NUM_SLD	17
T_NUM_ALL	449
T_JUDGE_TAP	409
T_JUDGE_HLD	70
T_JUDGE_SLD	17
T_JUDGE_ALL	496
TTM_EACHPAIRS	149
TTM_SCR_TAP	201500
TTM_SCR_BRK	15600
TTM_SCR_HLD	23000
TTM_SCR_SLD	25500
TTM_SCR_ALL	265600
TTM_SCR_S	257050
TTM_SCR_SS	265000
TTM_RAT_ACV	10022

