VERSION	0.00.00	1.03.00
FES_MODE	0
BPM_DEF	160.000	160.000	160.000	160.000
MET_DEF	4	4
RESOLUTION	384
CLK_DEF	384
COMPATIBLE_CODE	MA2

BPM	0	0	160.000
MET	0	0	4	4
MET	1	0	4	6
MET	2	192	4	4
MET	10	192	4	5
MET	13	0	4	6
MET	19	0	4	4
MET	45	0	4	5
MET	47	192	4	4
MET	85	192	4	5

TAP	1	192	0
TAP	2	0	0
TAP	2	192	1
TAP	3	0	1
TAP	3	192	7
TAP	4	0	7
TAP	4	192	6
TAP	5	0	6
HLD	5	192	0	192
HLD	5	192	7	192
TAP	6	192	0
TAP	7	0	0
TAP	7	192	1
TAP	7	288	1
TAP	8	0	1
TAP	8	192	7
TAP	9	0	7
TAP	9	192	6
TAP	9	288	6
TAP	10	0	6
HLD	10	192	4	192
HLD	10	192	5	192
HLD	11	288	2	192
HLD	11	288	3	192
TAP	13	0	3
TAP	13	192	3
TAP	14	0	3
TAP	14	0	4
TAP	14	192	4
TAP	15	0	4
TAP	15	192	3
TAP	15	192	4
TAP	16	0	2
TAP	16	192	2
TAP	17	0	2
TAP	17	0	3
TAP	17	192	5
TAP	18	0	5
TAP	18	192	4
TAP	18	192	5
STR	19	0	6
SI_	19	0	6	96	288	2
STR	21	0	1
SI_	21	0	1	96	288	5
TAP	23	0	6
TAP	23	192	6
TAP	24	0	7
TAP	24	192	7
TAP	25	0	0
TAP	25	192	0
TAP	26	0	1
TAP	26	96	1
BRK	26	192	1
TAP	27	0	2
TAP	27	96	2
TAP	27	192	2
TAP	28	0	3
TAP	28	96	4
TAP	28	192	3
TAP	29	0	5
TAP	29	96	5
TAP	29	192	5
TAP	30	0	4
TAP	30	96	3
TAP	30	192	4
TAP	30	288	3
TAP	31	0	4
TAP	31	96	4
TAP	31	192	4
TAP	32	0	5
TAP	32	96	4
TAP	32	192	5
TAP	33	0	3
TAP	33	96	3
TAP	33	192	3
TAP	34	0	2
TAP	34	96	2
TAP	34	192	3
TAP	34	288	3
TAP	35	0	2
TAP	35	96	2
TAP	35	192	2
TAP	35	192	3
TAP	36	0	1
TAP	36	96	1
TAP	36	192	0
TAP	36	192	1
TAP	37	0	0
TAP	37	96	0
TAP	37	192	0
TAP	37	192	7
TAP	38	0	7
TAP	38	96	7
TAP	38	192	0
TAP	38	288	0
TAP	39	0	7
TAP	39	96	7
TAP	39	192	0
TAP	39	192	7
TAP	40	0	6
TAP	40	96	6
TAP	40	192	6
TAP	41	0	5
TAP	41	96	4
TAP	41	192	5
TAP	42	0	3
TAP	42	96	3
TAP	42	192	4
TAP	42	288	4
TAP	43	0	3
TAP	43	96	3
TAP	43	192	4
TAP	43	288	4
TAP	44	0	3
TAP	44	96	4
TAP	44	192	3
TAP	44	288	4
HLD	45	0	2	192
HLD	45	0	5	192
HLD	46	96	0	192
HLD	46	96	1	192
BRK	47	192	0
STR	48	192	0
SI_	48	192	0	96	288	5
STR	50	192	6
SI_	50	192	6	96	288	3
STR	52	192	1
SI_	52	192	1	96	288	4
STR	54	192	7
SI_	54	192	7	96	288	2
TAP	59	192	1
TAP	59	288	1
TAP	60	0	0
TAP	60	0	1
TAP	60	192	2
TAP	60	288	3
TAP	61	0	2
TAP	61	192	4
TAP	61	288	3
TAP	62	0	3
TAP	62	0	4
TAP	62	192	5
TAP	62	288	4
TAP	63	0	5
TAP	63	96	4
TAP	63	192	6
TAP	63	288	6
TAP	64	0	6
TAP	64	0	7
TAP	64	192	5
TAP	64	288	4
TAP	65	0	5
TAP	65	192	3
TAP	65	288	4
TAP	66	0	3
TAP	66	0	4
TAP	66	192	2
TAP	66	192	3
TAP	66	288	2
TAP	66	288	3
TAP	67	0	4
TAP	67	0	5
BRK	67	96	4
BRK	67	96	5
TAP	67	192	6
TAP	67	288	6
TAP	68	0	6
TAP	68	0	7
TAP	68	192	5
TAP	68	288	4
TAP	69	0	5
TAP	69	192	3
TAP	69	288	4
TAP	70	0	3
TAP	70	0	4
TAP	70	192	2
TAP	70	288	3
TAP	71	0	2
TAP	71	96	3
TAP	71	192	1
TAP	71	288	1
TAP	72	0	0
TAP	72	0	1
TAP	72	192	2
TAP	72	288	3
TAP	73	0	2
TAP	73	192	4
TAP	73	288	3
TAP	74	0	3
TAP	74	0	4
TAP	74	192	4
TAP	74	192	5
TAP	74	288	4
TAP	74	288	5
TAP	75	0	2
TAP	75	0	3
TAP	75	96	2
TAP	75	96	3
HLD	75	192	1	384
HLD	75	192	4	384
TAP	77	192	0
TAP	77	288	0
TAP	78	0	0
TAP	78	0	7
TAP	78	192	7
TAP	78	288	0
TAP	79	0	7
TAP	79	96	0
TAP	79	192	1
TAP	79	288	1
TAP	80	0	0
TAP	80	0	1
TAP	80	192	2
TAP	80	288	3
TAP	81	0	2
TAP	81	192	4
TAP	81	288	3
TAP	82	0	3
TAP	82	0	4
TAP	82	192	5
TAP	82	288	5
TAP	83	0	4
TAP	83	0	5
BRK	83	96	4
BRK	83	96	5
TAP	83	192	2
TAP	83	288	2
TAP	84	0	2
TAP	84	0	3
TAP	84	96	2
TAP	84	96	3
TAP	84	192	4
TAP	84	288	3
TAP	85	0	3
TAP	85	0	4
TAP	85	96	3
TAP	85	96	4
BRK	85	192	2
BRK	85	192	5
TAP	86	288	1
TAP	87	0	1
TAP	87	96	0
TAP	87	96	1
TAP	87	192	0
TAP	87	192	1
TAP	88	0	6
TAP	88	96	6
TAP	88	192	6
TAP	88	192	7
TAP	88	288	6
TAP	88	288	7
TAP	89	96	5
TAP	89	192	5
TAP	89	288	4
TAP	89	288	5
TAP	90	0	4
TAP	90	0	5
HLD	90	96	4	192
HLD	90	96	5	192

T_REC_TAP	225
T_REC_BRK	8
T_REC_XTP	0
T_REC_HLD	14
T_REC_XHO	0
T_REC_STR	6
T_REC_BST	0
T_REC_XST	0
T_REC_TTP	0
T_REC_THO	0
T_REC_SLD	6
T_REC_ALL	259
T_NUM_TAP	231
T_NUM_BRK	8
T_NUM_HLD	14
T_NUM_SLD	6
T_NUM_ALL	259
T_JUDGE_TAP	239
T_JUDGE_HLD	64
T_JUDGE_SLD	6
T_JUDGE_ALL	309
TTM_EACHPAIRS	47
TTM_SCR_TAP	115500
TTM_SCR_BRK	20800
TTM_SCR_HLD	14000
TTM_SCR_SLD	9000
TTM_SCR_ALL	159300
TTM_SCR_S	153750
TTM_SCR_SS	158500
TTM_RAT_ACV	10050

