VERSION	0.00.00	1.03.00
FES_MODE	0
BPM_DEF	150.000	150.000	150.000	150.000
MET_DEF	4	4
RESOLUTION	384
CLK_DEF	384
COMPATIBLE_CODE	MA2

BPM	0	0	150.000
MET	0	0	4	4

TAP	2	0	5
TAP	2	96	5
TAP	2	168	3
TAP	2	192	4
TAP	2	240	4
TAP	2	288	2
TAP	2	288	5
STR	3	0	1
SI_	3	0	1	96	48	4
TAP	3	0	4
TAP	3	96	3
TAP	3	192	3
STR	3	192	6
SI_	3	192	6	96	48	3
TAP	3	288	4
STR	4	0	1
SI_	4	0	1	96	48	4
TAP	4	0	4
TAP	4	96	3
TAP	4	192	3
STR	4	192	6
SI_	4	192	6	96	48	3
TAP	4	288	4
STR	5	0	0
SI_	5	0	0	96	48	4
TAP	5	0	4
TAP	5	96	3
TAP	5	192	3
STR	5	192	7
SI_	5	192	7	96	48	3
TAP	5	288	4
STR	6	0	0
SI_	6	0	0	96	48	4
TAP	6	0	4
TAP	6	96	3
TAP	6	192	2
TAP	6	192	7
TAP	6	288	0
TAP	6	288	5
TAP	7	0	3
STR	7	0	6
SI_	7	0	6	96	48	3
TAP	7	96	4
STR	7	192	1
SI_	7	192	1	96	48	4
TAP	7	192	4
TAP	7	288	3
TAP	8	0	3
STR	8	0	6
SI_	8	0	6	96	48	3
TAP	8	96	4
STR	8	192	1
SI_	8	192	1	96	48	4
TAP	8	192	4
TAP	8	288	3
TAP	9	0	3
STR	9	0	7
SI_	9	0	7	96	48	3
TAP	9	96	4
STR	9	192	0
SI_	9	192	0	96	48	4
TAP	9	192	4
TAP	9	288	3
TAP	10	0	3
TAP	10	0	7
TAP	10	96	3
STR	10	96	4
SI_	10	96	4	96	48	7
STR	10	192	0
SI_	10	192	0	96	48	3
TAP	10	288	4
TAP	11	0	4
TAP	11	0	5
TAP	11	96	2
TAP	11	96	5
TAP	11	192	4
TAP	11	192	5
TAP	11	288	2
TAP	11	288	5
TAP	12	0	2
TAP	12	0	3
TAP	12	96	2
TAP	12	96	5
TAP	12	192	2
TAP	12	192	3
STR	12	288	0
SCL	12	288	0	96	48	5
SCR	12	288	0	96	48	3
TAP	12	288	5
TAP	13	96	1
TAP	13	96	7
TAP	13	144	1
TAP	13	144	7
TAP	13	240	3
TAP	13	240	4
TAP	13	288	3
TAP	13	288	4
TAP	14	0	2
STR	14	0	5
SI_	14	0	5	96	48	0
TAP	14	96	1
TAP	14	192	3
STR	14	192	5
SI_	14	192	5	96	48	0
TAP	14	288	1
TAP	15	0	2
TAP	15	0	3
TAP	15	96	2
TAP	15	96	5
TAP	15	192	2
TAP	15	192	3
TAP	15	288	2
TAP	15	288	5
TAP	16	0	4
TAP	16	0	5
TAP	16	96	2
TAP	16	96	5
TAP	16	192	4
TAP	16	192	5
TAP	16	288	2
STR	16	288	7
SXL	16	288	7	96	48	1
SXR	16	288	7	96	48	5
TAP	17	96	0
TAP	17	96	6
TAP	17	144	0
TAP	17	144	6
TAP	17	240	3
TAP	17	240	4
TAP	17	288	3
TAP	17	288	4
STR	18	0	2
SI_	18	0	2	96	48	7
TAP	18	0	5
TAP	18	96	6
STR	18	192	2
SI_	18	192	2	96	48	7
TAP	18	192	4
TAP	18	288	6
TAP	19	0	5
TAP	19	48	5
TAP	19	96	4
TAP	19	144	3
TAP	19	192	2
TAP	19	240	3
TAP	19	288	4
TAP	19	336	5
TAP	20	0	5
TAP	20	48	4
TAP	20	96	3
TAP	20	144	2
HLD	20	192	1	48
HLD	20	192	7	48
HLD	20	288	0	48
HLD	20	288	6	48
TAP	21	0	2
TAP	21	48	2
TAP	21	96	3
TAP	21	144	4
TAP	21	192	5
TAP	21	240	4
TAP	21	288	3
TAP	21	336	2
TAP	22	0	2
TAP	22	48	4
TAP	22	96	6
TAP	22	144	3
TAP	22	192	1
TAP	22	240	2
TAP	22	288	4
TAP	22	336	3
TAP	23	0	5
TAP	23	48	5
TAP	23	96	4
TAP	23	144	3
TAP	23	192	2
TAP	23	240	3
TAP	23	288	4
TAP	23	336	5
TAP	24	0	5
TAP	24	48	4
TAP	24	96	3
TAP	24	144	3
HLD	24	192	2	48
HLD	24	192	5	48
HLD	24	288	2	48
HLD	24	288	5	48
TAP	25	0	4
TAP	25	48	4
TAP	25	96	3
TAP	25	144	3
TAP	25	192	4
TAP	25	240	6
TAP	25	288	3
TAP	25	336	1
BRK	26	0	0
BRK	26	0	7
TAP	26	288	3
TAP	26	288	4
STR	27	0	2
SCL	27	0	2	96	48	7
STR	27	0	5
SCL	27	0	5	96	48	2
STR	27	192	2
SCL	27	192	2	96	48	7
STR	27	192	5
SCL	27	192	5	96	48	2
TAP	28	0	2
TAP	28	0	4
TAP	28	48	4
STR	28	96	3
SI_	28	96	3	96	48	1
SI_	28	96	3	96	48	7
TAP	28	96	5
TAP	28	288	2
STR	28	288	3
SI_	28	288	3	96	48	7
TAP	29	0	0
TAP	29	48	0
TAP	29	96	2
HLD	29	144	1	288
TAP	29	240	5
TAP	29	288	6
HLD	29	336	7	96
TAP	30	96	1
TAP	30	96	7
TAP	30	192	0
TAP	30	192	5
BRK	30	288	2
BRK	30	288	7
STR	31	0	2
SCR	31	0	2	96	48	5
STR	31	0	5
SCR	31	0	5	96	48	0
STR	31	192	2
SCR	31	192	2	96	48	5
STR	31	192	5
SCR	31	192	5	96	48	0
TAP	32	0	3
TAP	32	0	5
TAP	32	48	3
TAP	32	96	2
STR	32	96	4
SI_	32	96	4	96	48	0
SI_	32	96	4	96	48	6
STR	32	288	4
SI_	32	288	4	96	48	0
TAP	32	288	5
HLD	33	0	7	144
HLD	33	96	2	48
TAP	33	192	2
TAP	33	192	7
TAP	33	288	3
TAP	33	288	5
TAP	33	336	4
TAP	34	0	2
TAP	34	48	3
STR	34	96	4
SI_	34	96	4	96	48	0
STR	34	96	5
SI_	34	96	5	96	48	1
TAP	34	288	2
TAP	34	288	4
STR	35	0	2
SCR	35	0	2	96	48	5
STR	35	0	5
SCR	35	0	5	96	48	0
STR	35	192	2
SCR	35	192	2	96	48	5
STR	35	192	5
SCR	35	192	5	96	48	0
TAP	36	0	3
TAP	36	0	5
TAP	36	48	5
TAP	36	96	3
STR	36	96	4
SI_	36	96	4	96	48	0
SI_	36	96	4	96	48	6
STR	36	288	4
SI_	36	288	4	96	48	0
TAP	36	288	5
TAP	37	0	6
TAP	37	48	6
TAP	37	96	3
HLD	37	144	4	432
TAP	37	240	0
TAP	37	288	0
STR	37	336	1
SV_	37	336	1	96	96	7
TAP	38	192	0
BRK	38	288	1
BRK	38	288	7
STR	39	0	2
SCL	39	0	2	96	48	7
STR	39	0	5
SCL	39	0	5	96	48	2
STR	39	192	2
SCL	39	192	2	96	48	7
STR	39	192	5
SCL	39	192	5	96	48	2
TAP	40	0	2
TAP	40	0	4
TAP	40	48	2
STR	40	96	3
SI_	40	96	3	96	48	1
SI_	40	96	3	96	48	7
TAP	40	96	4
TAP	40	288	2
STR	40	288	3
SI_	40	288	3	96	48	7
TAP	41	0	1
TAP	41	48	1
STR	41	96	2
SCR	41	96	2	96	48	5
HLD	41	192	7	96
TAP	41	288	1
HLD	41	336	1	96
TAP	42	48	3
TAP	42	96	3
BRK	42	192	1
BRK	42	192	5
BRK	42	288	2
BRK	42	288	6
TAP	43	0	5
TAP	43	48	4
TAP	43	96	5
TAP	43	192	3
TAP	43	192	6
TAP	43	336	2
TAP	44	0	2
TAP	44	48	3
TAP	44	96	2
TAP	44	192	1
TAP	44	192	4
TAP	44	336	5
TAP	45	0	5
TAP	45	48	4
TAP	45	96	5
TAP	45	192	3
TAP	45	192	5
TAP	45	336	2
TAP	46	0	2
TAP	46	48	3
TAP	46	96	2
TAP	46	192	2
TAP	46	192	4
TAP	46	336	4
TAP	47	0	4
TAP	47	48	3
TAP	47	96	5
TAP	47	192	4
TAP	47	192	5
TAP	47	336	3
TAP	48	0	3
TAP	48	48	4
TAP	48	96	2
TAP	48	192	2
TAP	48	192	3
TAP	48	336	4
TAP	49	0	4
TAP	49	48	3
TAP	49	96	4
TAP	49	192	3
TAP	49	192	4
TAP	50	0	3
STR	51	0	1
SCL	51	0	1	96	48	6
TAP	51	0	5
TAP	51	96	4
TAP	51	192	2
STR	51	192	6
SCR	51	192	6	96	48	1
TAP	51	288	3
STR	52	0	1
SCL	52	0	1	96	48	6
TAP	52	0	5
TAP	52	96	4
TAP	52	192	2
TAP	52	192	4
TAP	52	288	3
TAP	52	288	5
TAP	53	0	2
STR	53	0	6
SCR	53	0	6	96	48	1
TAP	53	96	3
STR	53	192	1
SCL	53	192	1	96	48	6
TAP	53	192	5
TAP	53	288	4
TAP	54	0	2
STR	54	0	6
SCR	54	0	6	96	48	1
STR	54	96	3
SI_	54	96	3	96	96	7
TAP	55	0	1
STR	55	0	5
SCL	55	0	5	96	48	2
TAP	55	96	7
STR	55	192	2
SCR	55	192	2	96	48	5
TAP	55	192	6
TAP	55	288	0
TAP	56	0	1
STR	56	0	5
SCL	56	0	5	96	48	2
TAP	56	96	7
TAP	56	192	0
TAP	56	192	7
TAP	56	288	1
TAP	56	288	6
STR	57	0	2
SCR	57	0	2	96	48	5
TAP	57	0	6
TAP	57	96	0
TAP	57	192	1
STR	57	192	5
SCL	57	192	5	96	48	2
TAP	57	288	7
STR	58	0	2
SCR	58	0	2	96	48	5
TAP	58	0	6
TAP	58	96	0
TAP	58	192	3
TAP	58	192	4
TAP	58	288	0
TAP	58	288	7
STR	59	0	2
SI_	59	0	2	96	48	5
TAP	59	0	5
TAP	59	288	3
TAP	59	288	4
TAP	60	0	3
STR	60	0	4
SI_	60	0	4	96	144	7
TAP	60	96	3
TAP	60	192	3
TAP	60	288	3
STR	61	0	3
SI_	61	0	3	96	144	0
TAP	61	0	4
TAP	61	96	4
TAP	61	192	4
TAP	61	288	4
TAP	62	0	3
STR	62	0	4
SI_	62	0	4	96	144	7
TAP	62	96	3
TAP	62	192	3
TAP	62	288	3
STR	63	0	3
SXR	63	0	3	96	192	0
TAP	63	0	4
TAP	63	96	4
TAP	63	192	4
TAP	63	288	4
TAP	64	0	3
STR	64	0	4
SI_	64	0	4	96	144	7
TAP	64	96	3
TAP	64	192	2
TAP	64	288	2
STR	65	0	3
SI_	65	0	3	96	144	0
TAP	65	0	4
TAP	65	96	4
TAP	65	192	5
TAP	65	288	5
TAP	66	0	3
STR	66	0	4
SI_	66	0	4	96	144	7
TAP	66	96	2
TAP	66	192	1
STR	66	288	0
SI_	66	288	0	96	48	4
STR	67	0	7
SV_	67	0	7	96	48	5
STR	67	96	1
SV_	67	96	1	96	48	3
TAP	67	192	7
BRK	67	288	1
BRK	67	288	6
STR	68	0	2
SI_	68	0	2	96	48	7
TAP	68	0	4
STR	68	96	5
SI_	68	96	5	96	48	0
STR	68	192	2
SI_	68	192	2	96	48	7
STR	68	288	5
SI_	68	288	5	96	48	0
TAP	69	0	2
TAP	69	48	2
STR	69	96	2
SI_	69	96	2	96	48	7
STR	69	96	3
SI_	69	96	3	96	48	6
STR	69	288	4
SI_	69	288	4	96	48	1
STR	69	288	5
SI_	69	288	5	96	48	0
TAP	70	96	2
TAP	70	96	4
TAP	70	144	3
TAP	70	192	4
TAP	70	240	3
STR	70	288	1
SCL	70	288	1	96	96	4
STR	70	288	2
SUL	70	288	2	96	96	3
TAP	71	192	3
TAP	71	192	4
BRK	71	288	1
BRK	71	288	6
TAP	72	0	3
STR	72	0	5
SI_	72	0	5	96	48	0
STR	72	96	2
SI_	72	96	2	96	48	7
STR	72	192	5
SI_	72	192	5	96	48	0
STR	72	288	2
SI_	72	288	2	96	48	7
TAP	73	0	5
TAP	73	48	5
STR	73	96	4
SI_	73	96	4	96	48	1
STR	73	96	5
SI_	73	96	5	96	48	0
STR	73	288	2
SI_	73	288	2	96	48	7
STR	73	288	3
SI_	73	288	3	96	48	6
HLD	74	96	3	48
HLD	74	96	5	48
HLD	74	192	2	48
HLD	74	192	4	48
HLD	74	288	3	48
HLD	74	288	5	48
HLD	75	0	2	48
HLD	75	0	3	48
HLD	75	96	4	48
HLD	75	96	5	48
HLD	75	192	2	48
HLD	75	192	4	48
TAP	75	288	3
TAP	75	288	4
STR	76	0	1
SCL	76	0	1	96	48	6
STR	76	0	6
SCL	76	0	6	96	48	3
STR	76	192	1
SCL	76	192	1	96	48	6
STR	76	192	6
SCL	76	192	6	96	48	3
TAP	77	0	0
TAP	77	0	7
TAP	77	48	1
STR	77	96	1
SI_	77	96	1	96	48	6
STR	77	96	2
SI_	77	96	2	96	48	5
STR	77	288	5
SI_	77	288	5	96	48	2
STR	77	288	6
SI_	77	288	6	96	48	1
TAP	78	96	0
TAP	78	144	1
TAP	78	192	6
TAP	78	240	5
STR	78	288	3
SXR	78	288	3	96	144	0
STR	78	288	4
SXL	78	288	4	96	144	7
TAP	79	192	3
TAP	79	192	4
BRK	79	288	1
BRK	79	288	6
STR	80	0	1
SCR	80	0	1	96	48	4
STR	80	0	6
SCR	80	0	6	96	48	1
STR	80	192	1
SCR	80	192	1	96	48	4
STR	80	192	6
SCR	80	192	6	96	48	1
TAP	81	0	0
TAP	81	0	7
TAP	81	48	6
STR	81	96	5
SI_	81	96	5	96	48	2
STR	81	96	6
SI_	81	96	6	96	48	1
STR	81	288	0
SV_	81	288	0	96	48	3
SV_	81	288	0	96	48	5
TAP	82	96	7
TAP	82	144	7
TAP	82	192	0
TAP	82	240	0
TAP	82	288	5
TAP	82	336	6
TAP	83	0	2
TAP	83	48	1
TAP	83	96	4
TAP	83	144	4
TAP	83	192	1
TAP	83	192	5
TAP	83	288	2
TAP	83	288	6
STR	84	0	4
SI_	84	0	4	96	48	0
TAP	84	0	5
TAP	84	96	6
STR	84	192	4
SI_	84	192	4	96	48	0
TAP	84	192	5
TAP	84	288	7
TAP	85	0	2
STR	85	0	3
SI_	85	0	3	96	48	7
TAP	85	96	1
TAP	85	192	2
STR	85	192	3
SI_	85	192	3	96	48	7
TAP	85	288	0
STR	86	0	4
SI_	86	0	4	96	48	0
TAP	86	0	5
TAP	86	96	6
STR	86	192	4
SI_	86	192	4	96	48	0
TAP	86	192	5
TAP	86	288	7
TAP	87	0	2
STR	87	0	3
SI_	87	0	3	96	48	7
TAP	87	96	1
TAP	87	192	3
TAP	87	192	4
TAP	87	288	3
TAP	87	288	4

T_REC_TAP	361
T_REC_BRK	16
T_REC_XTP	0
T_REC_HLD	27
T_REC_XHO	0
T_REC_STR	115
T_REC_BST	0
T_REC_XST	0
T_REC_TTP	0
T_REC_THO	0
T_REC_SLD	122
T_REC_ALL	641
T_NUM_TAP	476
T_NUM_BRK	16
T_NUM_HLD	27
T_NUM_SLD	122
T_NUM_ALL	641
T_JUDGE_TAP	492
T_JUDGE_HLD	45
T_JUDGE_SLD	122
T_JUDGE_ALL	659
TTM_EACHPAIRS	157
TTM_SCR_TAP	238000
TTM_SCR_BRK	41600
TTM_SCR_HLD	27000
TTM_SCR_SLD	183000
TTM_SCR_ALL	489600
TTM_SCR_S	473400
TTM_SCR_SS	488000
TTM_RAT_ACV	10032

