VERSION	0.00.00	1.03.00
FES_MODE	0
BPM_DEF	150.000	150.000	150.000	150.000
MET_DEF	4	4
RESOLUTION	384
CLK_DEF	384
COMPATIBLE_CODE	MA2

BPM	0	0	150.000
MET	0	0	4	4

HLD	1	0	3	192
HLD	1	192	4	192
TAP	2	0	3
TAP	2	96	4
TAP	2	192	2
TAP	2	192	5
TAP	2	288	2
TAP	2	288	5
TAP	3	0	6
TAP	3	96	7
TAP	3	192	0
TAP	3	192	5
TAP	4	0	1
TAP	4	96	0
TAP	4	192	2
TAP	4	192	7
TAP	5	0	6
TAP	5	96	7
TAP	5	192	1
TAP	5	192	4
TAP	6	0	1
TAP	6	96	0
TAP	6	192	3
TAP	6	192	6
TAP	7	0	2
TAP	7	96	3
TAP	7	192	1
TAP	7	192	4
TAP	8	0	5
TAP	8	96	4
TAP	8	192	3
TAP	8	192	6
TAP	9	0	2
TAP	9	96	3
TAP	9	192	0
TAP	9	192	5
TAP	10	0	5
TAP	10	96	4
TAP	10	192	2
STR	10	192	7
SI_	10	192	7	96	48	3
TAP	11	0	2
TAP	11	96	2
TAP	11	96	3
TAP	11	192	5
TAP	11	288	4
TAP	11	288	5
TAP	12	0	2
TAP	12	96	1
TAP	12	96	3
TAP	12	192	5
TAP	12	288	4
TAP	12	288	6
TAP	13	0	2
TAP	13	0	3
TAP	13	96	1
TAP	13	96	4
STR	13	144	1
SCR	13	144	1	96	48	3
STR	13	144	4
SCR	13	144	4	96	48	6
TAP	14	0	7
TAP	14	96	1
TAP	14	96	3
TAP	14	192	0
TAP	14	288	4
TAP	14	288	6
TAP	15	0	5
TAP	15	96	4
TAP	15	96	5
TAP	15	192	2
TAP	15	288	2
TAP	15	288	3
TAP	16	0	5
TAP	16	96	4
TAP	16	96	6
TAP	16	192	2
TAP	16	288	1
TAP	16	288	3
TAP	17	0	4
TAP	17	0	5
TAP	17	96	3
TAP	17	96	6
STR	17	144	3
SCL	17	144	3	96	48	1
STR	17	144	6
SCL	17	144	6	96	48	4
TAP	18	0	0
TAP	18	96	4
TAP	18	96	6
TAP	18	192	7
TAP	18	288	1
TAP	18	288	3
HLD	19	0	2	96
TAP	19	96	3
HLD	19	192	4	96
TAP	19	288	3
TAP	20	0	4
TAP	20	96	5
TAP	20	192	3
TAP	20	192	6
TAP	20	288	3
TAP	20	288	6
TAP	21	0	0
TAP	21	96	4
TAP	21	96	6
TAP	21	192	7
STR	21	288	1
SCR	21	288	1	96	192	6
TAP	21	288	3
TAP	22	288	0
TAP	22	288	7
HLD	23	0	5	96
TAP	23	96	4
HLD	23	192	3	96
TAP	23	288	4
TAP	24	0	3
TAP	24	96	2
TAP	24	192	1
TAP	24	192	4
TAP	24	288	1
TAP	24	288	4
TAP	25	0	2
TAP	25	48	3
TAP	25	96	2
TAP	25	192	5
TAP	25	240	4
STR	25	288	5
SCR	25	288	5	96	192	2
BRK	26	288	0
BRK	26	288	7
TAP	27	0	1
TAP	27	96	0
TAP	27	96	2
TAP	27	192	6
TAP	27	288	5
TAP	27	288	7
TAP	28	0	0
TAP	28	96	0
STR	28	96	7
SI_	28	96	7	96	48	5
STR	28	288	0
SI_	28	288	0	96	48	4
TAP	29	0	7
TAP	29	96	6
TAP	29	192	4
TAP	29	192	5
TAP	29	288	2
TAP	29	288	3
TAP	30	0	0
TAP	30	0	1
STR	30	96	6
SI_	30	96	6	96	48	3
STR	30	96	7
SI_	30	96	7	96	48	2
BRK	30	288	0
TAP	31	0	6
TAP	31	96	5
TAP	31	96	7
TAP	31	192	1
TAP	31	288	0
TAP	31	288	2
TAP	32	0	7
STR	32	96	0
SI_	32	96	0	96	48	2
TAP	32	96	7
STR	32	288	7
SI_	32	288	7	96	48	3
TAP	33	0	0
TAP	33	96	1
TAP	33	192	2
TAP	33	192	3
TAP	33	288	4
TAP	33	288	5
TAP	34	0	1
TAP	34	48	3
TAP	34	96	2
TAP	34	192	6
TAP	34	240	4
TAP	34	288	5
TAP	35	0	1
TAP	35	96	0
TAP	35	96	2
TAP	35	192	6
TAP	35	288	5
TAP	35	288	7
TAP	36	0	2
TAP	36	96	1
STR	36	96	3
SI_	36	96	3	96	48	6
STR	36	288	2
SI_	36	288	2	96	48	7
TAP	37	0	6
TAP	37	96	5
TAP	37	192	3
TAP	37	192	4
TAP	37	288	6
TAP	37	288	7
TAP	38	0	3
TAP	38	0	4
STR	38	96	0
SI_	38	96	0	96	48	5
STR	38	96	1
SI_	38	96	1	96	48	4
BRK	38	288	7
TAP	39	0	6
TAP	39	96	5
TAP	39	96	7
TAP	39	192	1
TAP	39	288	0
TAP	39	288	2
TAP	40	0	5
STR	40	96	4
SI_	40	96	4	96	48	1
TAP	40	96	6
STR	40	288	5
SI_	40	288	5	96	48	0
TAP	41	0	1
TAP	41	96	2
TAP	41	192	3
TAP	41	192	4
TAP	41	288	5
TAP	41	288	7
TAP	42	0	0
TAP	42	0	2
TAP	42	96	3
TAP	42	96	4
BRK	42	192	6
BRK	42	192	7
BRK	42	288	0
BRK	42	288	1
TAP	43	0	7
TAP	43	48	0
TAP	43	96	7
TAP	43	192	1
TAP	43	192	6
TAP	44	0	2
TAP	44	48	3
TAP	44	96	2
TAP	44	192	1
TAP	44	192	4
TAP	45	0	5
TAP	45	48	4
TAP	45	96	5
TAP	45	192	3
TAP	45	192	6
TAP	46	0	1
TAP	46	48	0
TAP	46	96	1
TAP	46	192	2
TAP	46	192	7
TAP	47	0	6
TAP	47	48	7
TAP	47	96	6
TAP	47	192	0
TAP	47	192	5
TAP	48	0	1
TAP	48	48	3
TAP	48	96	2
TAP	48	192	0
TAP	48	192	5
TAP	49	0	6
TAP	49	48	4
TAP	49	96	5
TAP	49	192	2
TAP	49	192	7
HLD	50	0	1	192
HLD	50	0	6	192
TAP	51	0	0
TAP	51	96	1
TAP	51	96	7
TAP	51	192	6
TAP	51	288	4
TAP	51	288	5
TAP	52	0	7
TAP	52	96	0
TAP	52	96	6
TAP	52	192	1
TAP	52	288	2
TAP	52	288	3
TAP	53	0	4
TAP	53	0	5
TAP	53	96	3
TAP	53	96	6
TAP	53	192	1
TAP	53	192	4
STR	53	288	2
SCL	53	288	2	96	192	5
STR	53	288	3
SUL	53	288	3	96	192	4
TAP	54	288	0
TAP	54	288	7
TAP	55	0	2
TAP	55	0	3
TAP	55	96	1
TAP	55	96	4
TAP	55	192	3
TAP	55	192	6
TAP	55	288	4
TAP	55	288	5
HLD	56	0	6	96
HLD	56	96	5	96
HLD	56	192	4	96
TAP	56	288	3
HLD	57	0	1	96
HLD	57	96	2	96
HLD	57	192	3	96
STR	57	288	4
SXL	57	288	4	96	192	3
STR	58	288	2
SCL	58	288	2	96	192	5
TAP	59	288	2
TAP	59	288	5
HLD	60	0	3	384
TAP	60	0	4
TAP	60	96	4
TAP	60	192	4
TAP	60	288	4
HLD	61	0	5	384
TAP	61	96	4
TAP	61	192	4
TAP	61	288	4
HLD	62	0	2	384
TAP	62	96	3
TAP	62	192	3
TAP	62	288	3
TAP	63	0	4
STR	63	96	3
SI_	63	96	3	96	48	1
STR	63	96	4
SI_	63	96	4	96	48	6
TAP	64	0	0
HLD	64	0	7	384
TAP	64	96	0
TAP	64	192	0
TAP	64	288	0
HLD	65	0	1	384
TAP	65	96	0
TAP	65	192	0
TAP	65	288	0
HLD	66	0	6	384
TAP	66	96	7
TAP	66	192	7
TAP	66	288	7
TAP	67	0	0
TAP	67	96	1
TAP	67	96	3
TAP	67	192	4
TAP	67	192	6
TAP	67	288	2
TAP	67	288	5
TAP	68	0	1
TAP	68	48	0
TAP	68	96	1
TAP	68	192	6
TAP	68	240	7
TAP	68	288	6
TAP	69	0	3
TAP	69	48	4
STR	69	96	3
SI_	69	96	3	96	48	0
STR	69	288	4
SI_	69	288	4	96	48	7
TAP	70	0	1
TAP	70	96	0
TAP	70	96	2
TAP	70	192	5
TAP	70	288	4
TAP	70	288	6
TAP	71	0	0
TAP	71	0	5
STR	71	96	2
SI_	71	96	2	96	48	7
STR	71	96	3
SI_	71	96	3	96	48	6
BRK	71	288	0
TAP	72	0	6
TAP	72	48	7
TAP	72	96	6
TAP	72	192	1
TAP	72	240	0
TAP	72	288	1
TAP	73	0	4
TAP	73	48	3
STR	73	96	4
SI_	73	96	4	96	48	7
STR	73	288	3
SI_	73	288	3	96	48	0
TAP	74	0	6
TAP	74	96	5
TAP	74	96	7
TAP	74	192	2
TAP	74	288	1
TAP	74	288	3
TAP	75	0	4
TAP	75	48	3
TAP	75	96	4
TAP	75	144	3
TAP	75	192	4
TAP	75	288	1
TAP	75	288	6
TAP	76	0	5
TAP	76	48	7
TAP	76	96	5
TAP	76	192	2
TAP	76	240	0
TAP	76	288	2
TAP	77	0	5
TAP	77	48	4
STR	77	96	5
SI_	77	96	5	96	48	0
STR	77	288	4
SI_	77	288	4	96	48	1
TAP	78	0	7
TAP	78	96	0
TAP	78	96	6
TAP	78	192	5
TAP	78	288	4
TAP	78	288	6
TAP	79	0	1
TAP	79	0	3
STR	79	96	4
SI_	79	96	4	96	48	1
STR	79	96	5
SI_	79	96	5	96	48	0
BRK	79	288	7
TAP	80	0	2
TAP	80	48	0
TAP	80	96	2
TAP	80	192	5
TAP	80	240	7
TAP	80	288	5
TAP	81	0	2
TAP	81	48	3
STR	81	96	2
SI_	81	96	2	96	48	7
STR	81	288	3
SI_	81	288	3	96	48	6
TAP	82	0	0
TAP	82	96	1
TAP	82	96	7
TAP	82	192	4
TAP	82	192	6
TAP	82	288	1
TAP	82	288	3
TAP	83	0	7
TAP	83	48	0
TAP	83	96	7
TAP	83	144	0
BST	83	192	7
SI_	83	192	7	96	48	4
BST	83	288	0
SI_	83	288	0	96	48	3
BST	84	0	7
SCL	84	0	7	96	192	0
TAP	85	0	0
TAP	85	48	7
TAP	85	96	0
TAP	85	144	7
TAP	85	192	0
TAP	85	288	3
TAP	85	288	4
HLD	86	0	1	96
TAP	86	96	0
HLD	86	192	6	96
TAP	86	288	7
TAP	87	0	3
TAP	87	48	4
TAP	87	96	3
TAP	87	144	4
STR	87	192	3
SI_	87	192	3	96	48	7

T_REC_TAP	358
T_REC_BRK	10
T_REC_XTP	0
T_REC_HLD	22
T_REC_XHO	0
T_REC_STR	38
T_REC_BST	3
T_REC_XST	0
T_REC_TTP	0
T_REC_THO	0
T_REC_SLD	41
T_REC_ALL	472
T_NUM_TAP	396
T_NUM_BRK	13
T_NUM_HLD	22
T_NUM_SLD	41
T_NUM_ALL	472
T_JUDGE_TAP	409
T_JUDGE_HLD	88
T_JUDGE_SLD	41
T_JUDGE_ALL	538
TTM_EACHPAIRS	107
TTM_SCR_TAP	198000
TTM_SCR_BRK	33800
TTM_SCR_HLD	22000
TTM_SCR_SLD	61500
TTM_SCR_ALL	315300
TTM_SCR_S	304600
TTM_SCR_SS	314000
TTM_RAT_ACV	10041

