VERSION	0.00.00	1.03.00
FES_MODE	0
BPM_DEF	150.000	150.000	150.000	150.000
MET_DEF	4	4
RESOLUTION	384
CLK_DEF	384
COMPATIBLE_CODE	MA2

BPM	0	0	150.000
MET	0	0	4	4

TAP	1	0	2
TAP	1	96	3
TAP	1	192	4
TAP	2	0	5
TAP	2	96	4
TAP	2	192	3
TAP	3	0	1
TAP	3	96	2
TAP	3	192	3
TAP	3	288	4
TAP	4	0	4
TAP	4	96	3
TAP	4	192	2
TAP	4	192	5
TAP	5	0	6
TAP	5	96	5
TAP	5	192	4
TAP	5	288	3
TAP	6	0	3
TAP	6	96	4
TAP	6	192	2
TAP	6	192	5
TAP	7	0	2
TAP	7	96	3
TAP	7	192	4
TAP	7	288	5
TAP	8	0	5
TAP	8	96	4
TAP	8	192	3
TAP	8	192	6
TAP	9	0	5
TAP	9	96	4
TAP	9	192	3
TAP	9	288	2
TAP	10	0	2
TAP	10	96	3
TAP	10	192	1
TAP	10	192	4
TAP	11	0	2
TAP	11	96	3
TAP	11	192	2
TAP	11	192	3
TAP	12	0	5
TAP	12	96	4
TAP	12	192	4
TAP	12	192	5
TAP	13	0	3
TAP	13	96	4
TAP	13	192	3
TAP	13	192	4
TAP	13	288	3
TAP	13	288	4
STR	14	0	3
SI_	14	0	3	96	96	0
STR	14	0	4
SI_	14	0	4	96	96	7
TAP	15	0	1
TAP	15	96	0
TAP	15	192	0
TAP	15	192	1
TAP	16	0	6
TAP	16	96	7
TAP	16	192	6
TAP	16	192	7
TAP	17	0	0
TAP	17	96	7
TAP	17	192	0
TAP	17	192	7
TAP	17	288	6
TAP	17	288	7
STR	18	0	6
SI_	18	0	6	96	96	3
STR	18	0	7
SI_	18	0	7	96	96	2
TAP	19	0	2
TAP	19	96	3
TAP	19	192	1
TAP	19	192	4
TAP	20	0	5
TAP	20	96	4
TAP	20	192	3
TAP	20	192	6
TAP	21	0	1
TAP	21	96	1
TAP	21	192	7
TAP	21	288	7
STR	22	0	0
SI_	22	0	0	96	96	4
TAP	23	0	5
TAP	23	96	4
TAP	23	192	3
TAP	23	192	6
TAP	24	0	2
TAP	24	96	3
TAP	24	192	1
TAP	24	192	4
TAP	25	0	2
TAP	25	0	3
TAP	25	96	2
TAP	25	96	3
TAP	25	192	4
TAP	25	192	5
TAP	25	288	4
TAP	25	288	5
BRK	26	0	1
BRK	26	0	6
TAP	27	0	0
TAP	27	96	1
TAP	27	192	2
TAP	27	288	3
TAP	28	0	4
TAP	28	96	5
TAP	28	192	6
TAP	28	192	7
TAP	29	0	7
TAP	29	96	0
TAP	29	96	7
TAP	29	192	1
TAP	29	288	0
TAP	29	288	1
TAP	30	0	6
TAP	30	96	6
TAP	30	96	7
BRK	30	192	0
BRK	30	192	5
TAP	31	0	7
TAP	31	96	6
TAP	31	192	5
TAP	31	288	4
TAP	32	0	3
TAP	32	96	2
TAP	32	192	0
TAP	32	192	1
TAP	33	0	0
TAP	33	96	0
TAP	33	96	7
TAP	33	192	6
TAP	33	288	6
TAP	33	288	7
TAP	34	0	1
TAP	34	96	0
TAP	34	96	1
TAP	34	192	2
TAP	34	192	7
TAP	35	0	7
TAP	35	96	6
TAP	35	192	5
TAP	35	288	4
TAP	36	0	3
TAP	36	0	4
TAP	36	96	2
TAP	36	96	5
TAP	36	192	1
TAP	36	192	6
TAP	37	0	3
TAP	37	96	3
TAP	37	96	4
TAP	37	192	5
TAP	37	288	4
TAP	37	288	5
TAP	38	0	2
TAP	38	96	2
TAP	38	96	3
BRK	38	192	1
BRK	38	192	4
TAP	39	0	0
TAP	39	96	1
TAP	39	192	2
TAP	39	288	3
TAP	40	0	3
TAP	40	0	4
TAP	40	96	2
TAP	40	96	5
TAP	40	192	1
TAP	40	192	6
TAP	41	0	5
TAP	41	96	4
TAP	41	96	5
TAP	41	192	2
TAP	41	288	2
TAP	41	288	3
TAP	42	0	6
TAP	42	96	6
TAP	42	96	7
BRK	42	192	0
BRK	42	288	0
TAP	43	0	6
TAP	43	96	7
TAP	43	192	0
TAP	43	192	5
TAP	44	0	1
TAP	44	96	0
TAP	44	192	2
TAP	44	192	7
TAP	45	0	5
TAP	45	96	4
TAP	45	192	3
TAP	45	192	6
TAP	46	0	2
TAP	46	96	3
TAP	46	192	1
TAP	46	192	4
TAP	47	0	5
TAP	47	96	4
TAP	47	192	3
TAP	47	192	6
TAP	48	0	1
TAP	48	96	0
TAP	48	192	2
TAP	48	192	7
TAP	49	0	6
TAP	49	96	7
TAP	49	192	0
TAP	49	192	5
TAP	50	0	1
TAP	50	96	7
TAP	50	192	0
TAP	50	192	6
STR	51	0	0
SI_	51	0	0	96	96	3
STR	51	0	7
SI_	51	0	7	96	96	4
STR	52	0	3
SI_	52	0	3	96	96	0
STR	52	0	4
SI_	52	0	4	96	96	7
TAP	53	0	0
TAP	53	96	1
TAP	53	192	2
TAP	53	288	3
TAP	54	0	7
TAP	54	96	6
TAP	54	192	5
TAP	54	288	4
STR	55	0	3
SI_	55	0	3	96	96	0
STR	55	0	4
SI_	55	0	4	96	96	7
STR	56	0	0
SI_	56	0	0	96	96	3
STR	56	0	7
SI_	56	0	7	96	96	4
TAP	57	0	3
TAP	57	96	2
TAP	57	192	1
TAP	57	288	0
TAP	58	0	4
TAP	58	96	5
TAP	58	192	6
TAP	58	288	0
TAP	58	288	7
BRK	59	0	1
BRK	59	0	6
HLD	60	0	2	192
HLD	60	0	3	192
HLD	61	0	6	192
HLD	61	0	7	192
HLD	62	0	1	192
HLD	62	0	2	192
HLD	63	0	5	192
HLD	63	0	6	192
HLD	64	0	4	192
HLD	64	0	5	192
HLD	65	0	0	192
HLD	65	0	1	192
HLD	66	0	5	192
HLD	66	0	6	192
HLD	67	0	1	192
HLD	67	0	2	192
TAP	68	0	1
TAP	68	96	0
TAP	68	192	1
TAP	68	288	2
TAP	68	288	7
STR	69	0	2
SI_	69	0	2	96	96	7
TAP	70	0	6
TAP	70	96	7
TAP	70	192	6
TAP	70	288	0
TAP	70	288	5
TAP	71	0	5
TAP	71	96	4
TAP	71	96	5
TAP	71	192	3
TAP	71	192	6
BRK	71	288	2
BRK	71	288	7
TAP	72	0	2
TAP	72	0	3
TAP	72	96	2
TAP	72	96	3
TAP	72	192	4
TAP	72	192	5
TAP	72	288	4
TAP	72	288	5
TAP	73	0	6
TAP	73	0	7
TAP	73	96	0
TAP	73	96	5
TAP	73	192	1
TAP	73	192	4
TAP	73	288	2
TAP	73	288	3
TAP	74	0	3
TAP	74	96	4
TAP	74	192	3
TAP	74	288	4
TAP	75	0	3
TAP	75	96	4
TAP	75	192	2
TAP	75	192	5
TAP	76	0	6
TAP	76	96	7
TAP	76	192	6
TAP	76	288	0
TAP	76	288	5
STR	77	0	5
SI_	77	0	5	96	96	0
TAP	78	0	1
TAP	78	96	0
TAP	78	192	1
TAP	78	288	2
TAP	78	288	7
TAP	79	0	2
TAP	79	96	2
TAP	79	96	3
TAP	79	192	1
TAP	79	192	4
BRK	79	288	0
BRK	79	288	5
TAP	80	0	4
TAP	80	0	5
TAP	80	96	4
TAP	80	96	5
TAP	80	192	2
TAP	80	192	3
TAP	80	288	2
TAP	80	288	3
TAP	81	0	0
TAP	81	0	1
TAP	81	96	2
TAP	81	96	7
TAP	81	192	3
TAP	81	192	6
TAP	82	0	2
TAP	82	0	3
TAP	82	96	2
TAP	82	96	3
TAP	82	192	4
TAP	82	192	5
TAP	82	288	4
TAP	82	288	5
TAP	83	0	6
TAP	83	0	7
TAP	83	96	6
TAP	83	96	7
TAP	83	192	0
TAP	83	192	1
TAP	83	288	0
TAP	83	288	1
STR	84	0	2
SXR	84	0	2	96	288	6
STR	86	0	6
SXL	86	0	6	96	288	2
TAP	87	192	0
TAP	87	192	1
BRK	87	288	2
BRK	87	288	7

T_REC_TAP	303
T_REC_BRK	16
T_REC_XTP	0
T_REC_HLD	16
T_REC_XHO	0
T_REC_STR	17
T_REC_BST	0
T_REC_XST	0
T_REC_TTP	0
T_REC_THO	0
T_REC_SLD	17
T_REC_ALL	369
T_NUM_TAP	320
T_NUM_BRK	16
T_NUM_HLD	16
T_NUM_SLD	17
T_NUM_ALL	369
T_JUDGE_TAP	336
T_JUDGE_HLD	64
T_JUDGE_SLD	17
T_JUDGE_ALL	417
TTM_EACHPAIRS	104
TTM_SCR_TAP	160000
TTM_SCR_BRK	41600
TTM_SCR_HLD	16000
TTM_SCR_SLD	25500
TTM_SCR_ALL	243100
TTM_SCR_S	234300
TTM_SCR_SS	241500
TTM_RAT_ACV	10066

