VERSION	0.00.00	1.03.00
FES_MODE	0
BPM_DEF	150.000	150.000	150.000	150.000
MET_DEF	4	4
RESOLUTION	384
CLK_DEF	384
COMPATIBLE_CODE	MA2

BPM	0	0	150.000
MET	0	0	4	4

TAP	3	0	3
TAP	3	96	3
TAP	3	192	3
TAP	5	0	4
TAP	5	96	4
TAP	5	192	4
TAP	7	0	2
TAP	7	0	3
TAP	7	96	2
TAP	7	96	3
TAP	7	192	2
TAP	7	192	3
TAP	9	0	4
TAP	9	0	5
TAP	9	96	4
TAP	9	96	5
TAP	9	192	4
TAP	9	192	5
TAP	11	0	3
TAP	11	192	3
TAP	12	0	2
TAP	12	192	2
STR	13	0	1
SI_	13	0	1	96	288	4
TAP	15	0	4
TAP	15	192	4
TAP	16	0	5
TAP	16	192	5
STR	17	0	6
SI_	17	0	6	96	288	3
TAP	19	0	2
TAP	19	96	2
TAP	19	192	1
TAP	19	288	1
HLD	20	0	0	192
TAP	21	0	7
TAP	21	96	7
TAP	21	192	6
TAP	21	288	6
HLD	22	0	5	192
TAP	23	0	5
TAP	23	96	5
TAP	23	192	6
TAP	23	288	6
HLD	24	0	7	192
TAP	25	0	0
TAP	25	96	7
TAP	25	192	0
TAP	25	288	7
BRK	26	0	1
BRK	26	0	6
TAP	27	0	0
TAP	27	96	0
TAP	27	192	7
TAP	27	288	7
TAP	28	0	6
TAP	28	96	6
TAP	28	192	6
TAP	28	192	7
TAP	29	0	5
TAP	29	96	5
TAP	29	192	4
TAP	29	288	4
TAP	30	0	3
TAP	30	96	3
TAP	30	192	3
TAP	30	192	4
TAP	31	0	2
TAP	31	96	2
TAP	31	192	1
TAP	31	288	1
TAP	32	0	0
TAP	32	96	0
TAP	32	192	0
TAP	32	192	7
HLD	33	0	7	192
TAP	34	0	0
TAP	34	96	0
TAP	34	192	0
TAP	34	192	7
TAP	35	0	7
TAP	35	96	7
TAP	35	192	0
TAP	35	288	0
TAP	36	0	1
TAP	36	96	1
TAP	36	192	0
TAP	36	192	1
TAP	37	0	2
TAP	37	96	2
TAP	37	192	3
TAP	37	288	3
TAP	38	0	4
TAP	38	96	4
TAP	38	192	3
TAP	38	192	4
TAP	39	0	5
TAP	39	96	5
TAP	39	192	6
TAP	39	288	6
TAP	40	0	7
TAP	40	96	7
TAP	40	192	0
TAP	40	192	7
HLD	41	0	0	192
TAP	42	0	7
TAP	42	96	7
BRK	42	192	0
BRK	42	192	7
STR	43	0	0
SI_	43	0	0	96	288	4
STR	45	0	7
SI_	45	0	7	96	288	3
STR	47	0	1
SI_	47	0	1	96	288	4
STR	49	0	6
SI_	49	0	6	96	288	3
HLD	51	0	0	192
HLD	52	0	1	192
TAP	53	0	2
TAP	53	192	2
HLD	54	0	3	192
HLD	54	0	4	192
HLD	55	0	4	192
HLD	56	0	5	192
TAP	57	0	6
TAP	57	192	6
HLD	58	0	0	192
HLD	58	0	7	192
HLD	59	0	1	192
HLD	59	0	6	192
TAP	60	0	1
TAP	60	192	2
TAP	61	0	3
TAP	61	192	3
TAP	61	192	4
TAP	62	0	4
TAP	62	192	5
TAP	63	0	6
TAP	63	192	6
TAP	63	192	7
TAP	64	0	6
TAP	64	192	5
TAP	65	0	4
TAP	65	192	3
TAP	65	192	4
TAP	66	0	3
TAP	66	192	2
TAP	67	0	1
BRK	67	192	0
BRK	67	192	1
TAP	68	0	2
TAP	68	96	2
TAP	68	192	3
TAP	68	288	3
TAP	69	0	4
TAP	69	96	4
TAP	69	192	4
TAP	69	192	5
TAP	70	0	5
TAP	70	96	5
TAP	70	192	6
TAP	70	288	6
TAP	71	0	7
TAP	71	96	7
TAP	71	192	0
TAP	71	192	7
TAP	72	0	1
TAP	72	96	1
TAP	72	192	2
TAP	72	288	2
TAP	73	0	3
TAP	73	96	3
TAP	73	192	3
TAP	73	192	4
HLD	74	0	4	192
TAP	75	0	3
TAP	75	96	3
TAP	75	192	3
TAP	75	192	4
TAP	76	0	5
TAP	76	96	5
TAP	76	192	4
TAP	76	288	4
TAP	77	0	3
TAP	77	96	3
TAP	77	192	2
TAP	77	192	3
TAP	78	0	2
TAP	78	96	2
TAP	78	192	1
TAP	78	288	1
TAP	79	0	0
TAP	79	96	0
TAP	79	192	0
TAP	79	192	7
TAP	80	0	6
TAP	80	96	6
TAP	80	192	5
TAP	80	288	5
TAP	81	0	4
TAP	81	96	4
TAP	81	192	3
TAP	81	192	4
HLD	82	0	3	192
TAP	83	0	4
TAP	83	96	4
BRK	83	192	3
BRK	83	192	4
TAP	84	0	3
TAP	84	96	3
TAP	84	192	2
TAP	84	288	2
TAP	85	0	1
TAP	85	96	1
TAP	85	192	0
TAP	85	192	7
TAP	86	0	7
TAP	86	96	7
TAP	86	192	6
TAP	86	288	6
TAP	87	0	5
TAP	87	96	5
TAP	87	192	3
TAP	87	192	4
TAP	87	288	3
TAP	87	288	4

T_REC_TAP	190
T_REC_BRK	8
T_REC_XTP	0
T_REC_HLD	17
T_REC_XHO	0
T_REC_STR	6
T_REC_BST	0
T_REC_XST	0
T_REC_TTP	0
T_REC_THO	0
T_REC_SLD	6
T_REC_ALL	227
T_NUM_TAP	196
T_NUM_BRK	8
T_NUM_HLD	17
T_NUM_SLD	6
T_NUM_ALL	227
T_JUDGE_TAP	204
T_JUDGE_HLD	68
T_JUDGE_SLD	6
T_JUDGE_ALL	278
TTM_EACHPAIRS	33
TTM_SCR_TAP	98000
TTM_SCR_BRK	20800
TTM_SCR_HLD	17000
TTM_SCR_SLD	9000
TTM_SCR_ALL	144800
TTM_SCR_S	139700
TTM_SCR_SS	144000
TTM_RAT_ACV	10055

