VERSION	0.00.00	1.03.00
FES_MODE	0
BPM_DEF	150.000	150.000	150.000	150.000
MET_DEF	4	4
RESOLUTION	384
CLK_DEF	384
COMPATIBLE_CODE	MA2

BPM	0	0	150.000
MET	0	0	4	4

TAP	1	0	1
TAP	1	144	5
TAP	1	192	4
TAP	1	240	3
TAP	1	288	4
TAP	1	336	5
TAP	2	48	6
TAP	2	96	6
TAP	2	144	0
TAP	2	192	7
TAP	2	264	1
TAP	2	288	1
STR	2	336	0
SSL	2	336	0	96	336	4
TAP	4	144	2
TAP	4	192	3
TAP	4	240	4
TAP	4	288	3
TAP	4	336	2
TAP	5	48	1
TAP	5	96	1
TAP	5	144	5
TAP	5	192	4
TAP	5	240	3
TAP	5	288	4
TAP	5	336	5
TAP	6	48	6
TAP	6	144	0
TAP	6	168	0
TAP	6	192	7
TAP	6	264	6
STR	6	336	5
SCL	6	336	5	96	480	6
STR	8	192	4
SI_	8	192	4	96	48	0
TAP	8	336	6
STR	9	0	6
SI_	9	0	6	96	48	2
TAP	9	144	1
HLD	9	192	1	72
HLD	9	264	2	72
STR	9	336	3
SI_	9	336	3	96	48	7
TAP	10	144	6
HLD	10	192	6	72
HLD	10	264	5	72
TAP	10	336	4
STR	11	0	1
SI_	11	0	1	96	48	4
TAP	11	96	4
STR	11	192	1
SI_	11	192	1	96	48	5
TAP	11	288	5
STR	12	0	1
SI_	12	0	1	96	48	6
TAP	12	96	6
STR	12	192	1
SI_	12	192	1	96	48	5
TAP	12	288	5
TAP	12	336	6
STR	13	0	5
SI_	13	0	5	96	48	1
TAP	13	144	6
HLD	13	192	6	72
HLD	13	264	5	72
STR	13	336	4
SI_	13	336	4	96	48	0
TAP	14	144	1
HLD	14	192	1	72
HLD	14	264	2	72
TAP	14	336	3
STR	15	0	6
SI_	15	0	6	96	48	3
TAP	15	96	3
STR	15	192	6
SI_	15	192	6	96	48	2
TAP	15	288	2
STR	16	0	6
SI_	16	0	6	96	48	1
TAP	16	96	1
TAP	16	144	0
TAP	16	192	0
TAP	16	240	1
TAP	16	288	2
STR	16	336	3
SI_	16	336	3	96	48	6
TAP	17	48	7
TAP	17	144	7
TAP	17	192	7
TAP	17	240	6
TAP	17	288	5
STR	17	336	4
SI_	17	336	4	96	48	1
TAP	18	48	0
TAP	18	96	0
TAP	18	144	1
TAP	18	192	2
TAP	18	264	3
TAP	18	288	3
TAP	18	336	5
STR	19	0	2
SCL	19	0	2	96	48	7
TAP	19	96	7
STR	19	192	2
SUL	19	192	2	96	48	6
TAP	19	288	6
STR	20	0	2
SUL	20	0	2	96	48	5
TAP	20	96	5
TAP	20	144	7
TAP	20	192	7
TAP	20	240	6
TAP	20	288	5
STR	20	336	4
SI_	20	336	4	96	48	7
TAP	21	48	0
TAP	21	96	0
TAP	21	144	1
TAP	21	192	1
TAP	21	240	2
TAP	21	288	3
STR	21	336	3
SI_	21	336	3	96	48	0
TAP	22	48	7
TAP	22	144	1
HLD	22	192	1	72
HLD	22	264	2	72
TAP	22	336	3
STR	23	0	7
SCR	23	0	7	96	48	2
TAP	23	96	4
STR	23	192	0
SCL	23	192	0	96	48	5
TAP	23	288	3
HLD	24	0	1	288
HLD	24	0	6	288
TAP	25	0	2
HLD	25	0	3	96
TAP	25	96	6
HLD	25	192	4	96
TAP	25	192	5
TAP	25	288	1
HLD	26	0	2	96
TAP	26	0	3
TAP	26	48	4
TAP	26	96	5
STR	26	192	1
SI_	26	192	1	96	48	5
STR	26	192	6
SI_	26	192	6	96	48	2
HLD	27	0	6	96
STR	27	0	7
SI_	27	0	7	96	48	3
STR	27	192	0
SI_	27	192	0	96	48	4
HLD	27	192	1	96
STR	28	0	3
SXL	28	0	3	96	96	3
SXR	28	0	3	96	96	3
TAP	28	240	1
TAP	28	240	5
TAP	28	288	1
TAP	28	288	5
TAP	29	0	2
HLD	29	0	3	96
TAP	29	48	1
TAP	29	96	0
HLD	29	192	4	96
TAP	29	192	5
TAP	29	240	6
TAP	29	288	7
TAP	30	0	1
TAP	30	0	6
TAP	30	48	2
TAP	30	48	5
TAP	30	96	3
TAP	30	96	4
STR	30	192	0
SI_	30	192	0	96	48	4
STR	30	192	7
SI_	30	192	7	96	48	3
TAP	31	0	6
TAP	31	0	7
HLD	31	48	0	96
HLD	31	48	5	96
TAP	31	192	0
TAP	31	192	1
HLD	31	240	2	96
HLD	31	240	7	96
STR	32	0	0
SUL	32	0	0	96	336	7
STR	32	0	7
SCL	32	0	7	96	336	0
TAP	32	48	0
TAP	32	48	7
HLD	33	192	5	72
TAP	33	192	7
HLD	33	264	3	72
TAP	33	336	1
STR	34	0	0
SI_	34	0	0	96	48	5
STR	34	0	1
SI_	34	0	1	96	48	4
TAP	34	96	0
TAP	34	96	1
TAP	34	192	1
HLD	34	192	7	72
HLD	34	264	5	72
TAP	34	336	3
STR	35	0	2
SI_	35	0	2	96	48	7
STR	35	0	3
SI_	35	0	3	96	48	6
TAP	35	96	2
TAP	35	96	3
STR	35	192	0
SI_	35	192	0	96	48	4
TAP	35	192	5
STR	35	288	6
SI_	35	288	6	96	48	3
TAP	35	336	6
STR	36	0	1
SI_	36	0	1	96	48	4
STR	36	96	7
SI_	36	96	7	96	48	3
TAP	36	144	7
STR	36	192	1
SI_	36	192	1	96	48	5
TAP	36	240	1
STR	36	288	4
SI_	36	288	4	96	48	0
TAP	36	336	4
TAP	37	48	1
TAP	37	96	1
TAP	37	192	0
HLD	37	192	2	72
HLD	37	264	4	72
TAP	37	336	6
STR	38	0	6
SI_	38	0	6	96	48	3
STR	38	0	7
SI_	38	0	7	96	48	2
TAP	38	96	6
TAP	38	96	7
HLD	38	192	0	72
TAP	38	192	6
HLD	38	264	2	72
TAP	38	336	4
STR	39	0	4
SI_	39	0	4	96	48	1
STR	39	0	5
SI_	39	0	5	96	48	0
TAP	39	96	4
TAP	39	96	5
TAP	39	192	2
STR	39	192	7
SI_	39	192	7	96	48	3
STR	39	288	1
SI_	39	288	1	96	48	4
TAP	39	336	1
STR	40	0	6
SI_	40	0	6	96	48	3
STR	40	96	0
SI_	40	96	0	96	48	4
TAP	40	144	0
STR	40	192	6
SI_	40	192	6	96	48	2
TAP	40	240	6
STR	40	288	3
SI_	40	288	3	96	48	7
TAP	40	336	3
TAP	41	48	6
TAP	41	96	6
STR	41	192	1
SLR	41	192	1	96	96	0
STR	41	192	6
SLL	41	192	6	96	96	7
HLD	42	48	1	72
HLD	42	120	2	72
HLD	42	192	3	72
TAP	42	264	4
TAP	42	336	5
TAP	42	336	6
HLD	43	48	6	72
HLD	43	120	5	72
HLD	43	192	4	72
TAP	43	264	3
TAP	43	336	1
TAP	43	336	2
HLD	44	48	3	72
HLD	44	120	0	72
HLD	44	192	1	72
TAP	44	264	2
TAP	44	336	0
TAP	44	336	3
HLD	45	48	4	72
HLD	45	120	7	72
HLD	45	192	6	72
TAP	45	264	5
TAP	45	336	4
TAP	45	336	7
STR	46	48	0
SI_	46	48	0	96	96	2
STR	46	120	0
SI_	46	120	0	96	96	3
STR	46	192	0
SI_	46	192	0	96	96	4
STR	47	48	7
SI_	47	48	7	96	96	5
STR	47	120	7
SI_	47	120	7	96	96	4
STR	47	192	7
SI_	47	192	7	96	96	3
HLD	48	48	1	72
HLD	48	120	6	72
HLD	48	192	3	72
HLD	48	264	0	72
HLD	48	336	5	72
HLD	49	24	2	72
HLD	49	96	7	72
HLD	49	168	4	72
TAP	49	240	0
TAP	49	288	1
TAP	49	336	2
TAP	50	0	3
HLD	50	48	4	192
TAP	50	120	3
TAP	50	168	3
HLD	50	240	3	192
TAP	50	312	4
TAP	50	360	4
HLD	51	48	4	192
TAP	51	120	3
TAP	51	168	3
HLD	51	240	3	192
TAP	51	312	4
TAP	51	360	4
HLD	52	48	4	192
TAP	52	120	3
TAP	52	168	3
HLD	52	240	3	192
TAP	52	312	4
TAP	52	360	4
HLD	53	48	4	192
TAP	53	120	3
TAP	53	168	3
HLD	53	240	3	192
TAP	53	312	4
TAP	53	360	4
HLD	54	48	5	192
TAP	54	120	4
TAP	54	168	4
HLD	54	240	2	192
TAP	54	312	3
TAP	54	360	3
HLD	55	48	4	192
TAP	55	120	3
TAP	55	168	3
HLD	55	240	3	192
TAP	55	312	4
TAP	55	360	4
HLD	56	48	5	192
TAP	56	120	4
TAP	56	168	4
HLD	56	240	2	120
TAP	56	312	3
TAP	56	360	3
BRK	57	0	2
TAP	57	192	0
TAP	57	192	7
TAP	57	264	1
TAP	57	264	6
TAP	57	336	2
TAP	57	336	5
HLD	58	0	3	32
HLD	58	0	4	32
HLD	58	64	2	32
HLD	58	64	7	32
HLD	58	128	3	32
HLD	58	128	5	32
HLD	58	192	0	32
HLD	58	192	4	32
HLD	58	256	1	32
HLD	58	256	2	32
HLD	58	320	6	32
HLD	58	320	7	32
HLD	59	0	1	32
HLD	59	0	5	32
HLD	59	64	3	32
HLD	59	64	6	32
HLD	59	128	0	32
HLD	59	128	2	32
HLD	59	192	4	32
HLD	59	192	6	32
HLD	59	256	0	32
HLD	59	256	4	32
HLD	59	320	1	32
HLD	59	320	7	32
HLD	60	0	0	32
HLD	60	0	2	32
HLD	60	64	4	32
HLD	60	64	7	32
HLD	60	128	1	32
HLD	60	128	3	32
HLD	60	192	1	32
HLD	60	192	2	32
HLD	60	256	2	32
HLD	60	256	7	32
HLD	60	320	0	32
HLD	60	320	3	32
HLD	61	0	3	32
HLD	61	0	4	32
HLD	61	64	1	32
HLD	61	64	6	32
HLD	61	128	2	32
HLD	61	128	5	32
STR	61	192	0
SI_	61	192	0	96	48	4
STR	61	192	7
SI_	61	192	7	96	48	3
TAP	61	240	2
TAP	61	240	5
TAP	61	288	0
TAP	61	288	7
BRK	62	0	1
BRK	62	0	6
TAP	62	192	0
TAP	62	192	7
TAP	62	264	1
TAP	62	264	6
TAP	62	336	2
TAP	62	336	5
STR	63	0	3
SI_	63	0	3	96	48	0
STR	63	0	4
SI_	63	0	4	96	48	7
TAP	63	192	2
STR	63	192	5
SI_	63	192	5	96	48	0
STR	63	288	3
SI_	63	288	3	96	48	6
TAP	63	336	3
STR	64	0	4
SI_	64	0	4	96	48	0
STR	64	96	2
SI_	64	96	2	96	48	7
TAP	64	144	2
STR	64	192	4
SI_	64	192	4	96	48	1
TAP	64	240	4
STR	64	288	3
SCL	64	288	3	96	288	4
TAP	64	336	3
TAP	66	0	1
TAP	66	0	6
TAP	66	96	0
TAP	66	144	1
STR	66	192	2
SCL	66	192	2	96	48	7
TAP	66	240	3
TAP	67	0	6
TAP	67	48	5
TAP	67	96	4
STR	67	144	3
SCR	67	144	3	96	48	6
TAP	67	240	0
TAP	67	288	0
TAP	68	0	0
TAP	68	0	7
TAP	68	96	7
TAP	68	144	6
STR	68	192	5
SCR	68	192	5	96	48	0
TAP	68	240	4
TAP	69	0	1
TAP	69	48	2
TAP	69	96	3
STR	69	144	4
SCL	69	144	4	96	48	1
TAP	69	240	7
TAP	69	288	7
STR	70	0	0
SCR	70	0	0	96	48	3
TAP	70	48	7
TAP	70	96	6
TAP	70	144	5
STR	70	192	4
SCR	70	192	4	96	48	7
TAP	70	240	3
TAP	70	288	2
TAP	70	336	1
STR	71	0	0
SCL	71	0	0	96	96	4
STR	71	96	4
SCL	71	96	4	96	96	0
STR	71	192	0
SI_	71	192	0	96	48	3
SI_	71	192	0	96	48	5
STR	72	0	7
SCL	72	0	7	96	48	4
TAP	72	48	0
TAP	72	96	1
TAP	72	144	2
STR	72	192	3
SCL	72	192	3	96	48	0
TAP	72	240	4
TAP	72	288	5
TAP	72	336	6
STR	73	0	7
SCR	73	0	7	96	96	3
STR	73	96	3
SCR	73	96	3	96	96	7
STR	73	192	7
SI_	73	192	7	96	48	2
SI_	73	192	7	96	48	4
STR	74	0	1
SCR	74	0	1	96	48	4
TAP	74	48	0
TAP	74	96	7
TAP	74	144	6
STR	74	192	5
SCR	74	192	5	96	48	0
TAP	74	240	4
TAP	74	288	3
TAP	74	336	2
STR	75	0	1
SCL	75	0	1	96	96	5
STR	75	96	5
SCL	75	96	5	96	96	1
STR	75	192	1
SF_	75	192	1	96	48	5
STR	76	0	6
SCL	76	0	6	96	48	3
TAP	76	48	7
TAP	76	96	0
TAP	76	144	1
STR	76	192	2
SCL	76	192	2	96	48	7
TAP	76	240	3
TAP	76	288	4
STR	76	336	5
SCR	76	336	5	96	336	4
HLD	78	48	3	72
HLD	78	120	4	72
HLD	78	192	5	72
HLD	78	264	6	72
TAP	78	336	7
HLD	79	48	4	72
HLD	79	120	3	72
HLD	79	192	2	72
HLD	79	264	1	72
HLD	79	336	0	48
BRK	80	0	7

T_REC_TAP	246
T_REC_BRK	4
T_REC_XTP	0
T_REC_HLD	116
T_REC_XHO	0
T_REC_STR	92
T_REC_BST	0
T_REC_XST	0
T_REC_TTP	0
T_REC_THO	0
T_REC_SLD	95
T_REC_ALL	553
T_NUM_TAP	338
T_NUM_BRK	4
T_NUM_HLD	116
T_NUM_SLD	95
T_NUM_ALL	553
T_JUDGE_TAP	342
T_JUDGE_HLD	224
T_JUDGE_SLD	95
T_JUDGE_ALL	661
TTM_EACHPAIRS	75
TTM_SCR_TAP	169000
TTM_SCR_BRK	10400
TTM_SCR_HLD	116000
TTM_SCR_SLD	142500
TTM_SCR_ALL	437900
TTM_SCR_S	424400
TTM_SCR_SS	437500
TTM_RAT_ACV	10009

