VERSION	0.00.00	1.03.00
FES_MODE	0
BPM_DEF	150.000	150.000	150.000	150.000
MET_DEF	4	4
RESOLUTION	384
CLK_DEF	384
COMPATIBLE_CODE	MA2

BPM	0	0	150.000
MET	0	0	4	4

HLD	1	0	2	192
HLD	1	192	3	192
HLD	2	0	4	192
HLD	2	192	5	192
STR	3	0	6
SCR	3	0	6	96	384	4
TAP	4	192	6
TAP	4	288	6
HLD	5	0	5	192
HLD	5	192	4	192
HLD	6	0	3	192
HLD	6	192	2	192
STR	7	0	1
SCL	7	0	1	96	384	3
TAP	8	192	1
TAP	8	288	1
HLD	9	0	2	192
TAP	9	192	3
TAP	9	288	2
HLD	10	0	1	192
TAP	10	0	4
TAP	10	192	0
TAP	10	288	1
TAP	11	0	2
STR	11	0	7
SI_	11	0	7	96	48	2
STR	11	192	1
SI_	11	192	1	96	48	4
TAP	11	192	4
TAP	12	0	3
STR	12	0	6
SI_	12	0	6	96	48	3
STR	12	192	0
SI_	12	192	0	96	48	5
TAP	12	192	5
HLD	13	0	6	192
TAP	13	192	7
TAP	13	288	6
TAP	14	0	0
HLD	14	0	5	192
TAP	14	192	4
TAP	14	288	5
TAP	15	0	3
STR	15	0	6
SI_	15	0	6	96	48	3
STR	15	192	1
SI_	15	192	1	96	48	4
TAP	15	192	4
TAP	16	0	2
STR	16	0	7
SI_	16	0	7	96	48	2
TAP	16	192	1
TAP	16	288	0
STR	16	288	7
SCL	16	288	7	96	96	4
TAP	17	192	6
STR	17	288	0
SCR	17	288	0	96	96	3
TAP	17	288	7
TAP	18	192	3
TAP	18	192	6
TAP	18	288	2
TAP	18	288	5
STR	19	0	1
SI_	19	0	1	96	48	4
TAP	19	0	4
TAP	19	192	3
STR	19	192	6
SI_	19	192	6	96	48	3
STR	20	0	0
SI_	20	0	0	96	48	5
TAP	20	0	5
TAP	20	192	6
STR	20	288	0
SCR	20	288	0	96	96	3
TAP	20	288	7
TAP	21	192	1
TAP	21	288	0
STR	21	288	7
SCL	21	288	7	96	96	4
TAP	22	192	1
TAP	22	192	4
TAP	22	288	2
TAP	22	288	5
STR	23	0	3
SI_	23	0	3	96	48	6
TAP	23	0	6
TAP	23	192	1
STR	23	192	4
SI_	23	192	4	96	48	1
HLD	24	0	0	288
HLD	24	0	7	288
TAP	25	0	0
TAP	25	0	7
TAP	25	96	1
TAP	25	96	3
TAP	25	192	5
TAP	25	240	5
TAP	25	288	4
TAP	25	288	6
TAP	26	0	0
TAP	26	0	7
TAP	26	96	2
TAP	26	144	2
TAP	26	192	1
TAP	26	192	3
TAP	26	288	0
TAP	26	288	2
TAP	27	0	0
TAP	27	0	7
TAP	27	96	4
TAP	27	96	6
TAP	27	192	2
TAP	27	240	2
TAP	27	288	1
TAP	27	288	3
TAP	28	0	0
TAP	28	0	7
TAP	28	96	5
TAP	28	144	5
TAP	28	192	4
TAP	28	192	6
TAP	28	288	5
TAP	28	288	7
TAP	29	0	0
TAP	29	0	1
TAP	29	96	6
TAP	29	96	7
TAP	29	192	0
TAP	29	240	0
TAP	29	288	1
TAP	29	288	7
TAP	30	0	3
TAP	30	0	5
TAP	30	96	7
TAP	30	144	7
TAP	30	192	0
TAP	30	192	6
STR	30	288	2
SI_	30	288	2	96	48	0
STR	30	288	4
SI_	30	288	4	96	48	6
STR	31	96	3
SI_	31	96	3	96	48	1
STR	31	96	5
SI_	31	96	5	96	48	7
STR	31	288	3
SI_	31	288	3	96	384	0
STR	31	288	4
SI_	31	288	4	96	384	7
BRK	34	0	0
BRK	34	0	7
TAP	34	96	3
TAP	34	96	4
TAP	34	192	0
TAP	34	192	7
TAP	34	264	1
TAP	34	264	6
TAP	34	336	2
TAP	34	336	5
TAP	35	0	2
TAP	35	0	5
TAP	35	96	0
TAP	35	96	7
TAP	35	192	3
TAP	35	240	3
TAP	35	288	4
TAP	35	336	4
STR	36	0	2
SCL	36	0	2	96	48	7
STR	36	192	6
SCL	36	192	6	96	48	3
STR	37	0	2
SCL	37	0	2	96	48	7
HLD	37	192	6	72
HLD	37	264	5	72
TAP	37	336	4
STR	38	0	4
SI_	38	0	4	96	48	7
HLD	38	192	1	72
HLD	38	264	2	72
TAP	38	336	3
STR	39	0	3
SI_	39	0	3	96	48	0
TAP	39	192	7
TAP	39	240	7
TAP	39	288	0
TAP	39	336	0
STR	40	0	6
SCL	40	0	6	96	48	3
STR	40	192	2
SCL	40	192	2	96	48	7
STR	41	0	6
SCL	41	0	6	96	48	3
STR	41	192	2
SCL	41	192	2	96	48	7
HLD	42	0	6	192
TAP	42	96	4
HLD	42	192	2	192
TAP	42	288	0
HLD	43	0	5	192
TAP	43	96	7
HLD	43	192	1	192
TAP	43	288	3
HLD	44	0	4	192
TAP	44	96	6
HLD	44	192	0	192
TAP	44	288	2
HLD	45	0	3	192
TAP	45	96	5
HLD	45	192	7	96
TAP	45	288	0
HLD	46	0	1	192
TAP	46	96	3
HLD	46	192	5	192
TAP	46	288	7
HLD	47	0	2	192
TAP	47	96	0
HLD	47	192	6	192
TAP	47	288	4
HLD	48	0	3	192
TAP	48	96	1
HLD	48	192	7	192
TAP	48	288	5
STR	49	0	4
SCR	49	0	4	96	192	3
TAP	50	0	4
TAP	50	96	4
TAP	50	192	3
TAP	50	288	3
TAP	51	0	4
TAP	51	96	3
TAP	51	192	2
TAP	51	288	1
TAP	52	0	0
TAP	52	96	0
TAP	52	192	7
TAP	52	288	7
TAP	53	0	0
TAP	53	96	7
TAP	53	192	6
TAP	53	288	5
TAP	54	0	4
TAP	54	96	4
TAP	54	192	3
TAP	54	288	3
TAP	55	0	4
TAP	55	96	2
TAP	55	192	5
HLD	55	288	3	480
HLD	56	0	4	384
HLD	58	0	0	64
HLD	58	64	1	64
HLD	58	128	2	64
HLD	58	192	3	64
HLD	58	256	4	64
HLD	58	320	5	64
HLD	59	0	6	64
HLD	59	64	7	64
HLD	59	128	0	64
HLD	59	192	1	64
HLD	59	256	2	64
HLD	59	320	3	64
HLD	60	0	4	64
HLD	60	64	5	64
HLD	60	128	6	64
HLD	60	192	7	64
HLD	60	256	0	64
HLD	60	320	1	64
HLD	61	0	2	64
HLD	61	64	3	64
HLD	61	128	4	64
STR	61	192	5
SI_	61	192	5	96	48	1
BRK	62	0	0
BRK	62	0	7
TAP	62	96	3
TAP	62	96	4
TAP	62	192	0
TAP	62	192	7
TAP	62	264	1
TAP	62	264	6
TAP	62	336	2
TAP	62	336	5
TAP	63	0	2
TAP	63	0	5
TAP	63	96	0
TAP	63	96	7
TAP	63	192	1
TAP	63	240	4
TAP	63	288	3
TAP	63	336	6
STR	64	0	0
SCL	64	0	0	96	48	5
STR	64	192	7
SCR	64	192	7	96	48	2
STR	65	0	0
SCL	65	0	0	96	48	5
STR	65	192	7
SCR	65	192	7	96	48	2
TAP	66	0	3
TAP	66	96	6
TAP	66	96	7
TAP	66	192	5
TAP	66	240	4
TAP	66	288	2
TAP	66	288	3
TAP	67	0	1
TAP	67	48	2
STR	67	96	3
SXR	67	96	3	96	144	6
TAP	67	144	4
TAP	68	0	7
TAP	68	96	0
TAP	68	96	1
TAP	68	192	2
TAP	68	240	3
TAP	68	288	4
TAP	68	288	5
TAP	69	0	6
TAP	69	48	5
STR	69	96	4
SXL	69	96	4	96	144	1
TAP	69	144	3
HLD	70	0	2	48
HLD	70	48	3	48
HLD	70	96	1	48
HLD	70	144	4	48
HLD	70	192	0	48
HLD	70	240	5	48
STR	70	288	7
SCR	70	288	7	96	288	5
HLD	70	336	6	336
HLD	72	0	5	48
HLD	72	48	4	48
HLD	72	96	6	48
HLD	72	144	3	48
HLD	72	192	7	48
HLD	72	240	2	48
STR	72	288	0
SCL	72	288	0	96	288	2
HLD	72	336	1	336
HLD	74	0	1	48
HLD	74	48	0	48
HLD	74	96	2	48
HLD	74	144	7	48
HLD	74	192	3	48
HLD	74	240	6	48
STR	74	288	4
SCL	74	288	4	96	288	6
HLD	74	336	5	336
HLD	76	0	6	48
HLD	76	48	7	48
HLD	76	96	5	48
HLD	76	144	0	48
HLD	76	192	4	48
HLD	76	240	1	48
STR	76	288	3
SCR	76	288	3	96	288	1
HLD	76	336	2	816
TAP	78	0	3
TAP	78	96	4
TAP	78	192	5
TAP	78	288	6
HLD	79	0	6	288
TAP	79	96	7
TAP	79	192	0
TAP	79	288	1
TAP	80	0	3
TAP	80	0	4

T_REC_TAP	192
T_REC_BRK	4
T_REC_XTP	0
T_REC_HLD	84
T_REC_XHO	0
T_REC_STR	45
T_REC_BST	0
T_REC_XST	0
T_REC_TTP	0
T_REC_THO	0
T_REC_SLD	45
T_REC_ALL	370
T_NUM_TAP	237
T_NUM_BRK	4
T_NUM_HLD	84
T_NUM_SLD	45
T_NUM_ALL	370
T_JUDGE_TAP	241
T_JUDGE_HLD	250
T_JUDGE_SLD	45
T_JUDGE_ALL	536
TTM_EACHPAIRS	62
TTM_SCR_TAP	118500
TTM_SCR_BRK	10400
TTM_SCR_HLD	84000
TTM_SCR_SLD	67500
TTM_SCR_ALL	280400
TTM_SCR_S	271600
TTM_SCR_SS	280000
TTM_RAT_ACV	10014

