VERSION	0.00.00	1.03.00
FES_MODE	0
BPM_DEF	150.000	150.000	150.000	150.000
MET_DEF	4	4
RESOLUTION	384
CLK_DEF	384
COMPATIBLE_CODE	MA2

BPM	0	0	150.000
MET	0	0	4	4

STR	1	0	0
SI_	1	0	0	96	144	3
STR	2	0	4
SI_	2	0	4	96	144	7
STR	3	0	1
SCR	3	0	1	96	288	6
TAP	4	192	2
TAP	4	192	5
TAP	4	288	2
TAP	4	288	5
STR	5	0	4
SI_	5	0	4	96	144	7
STR	6	0	0
SI_	6	0	0	96	144	3
STR	7	0	4
SCR	7	0	4	96	336	3
TAP	8	192	1
TAP	8	192	6
BRK	8	288	1
BRK	8	288	6
TAP	9	0	0
TAP	9	96	1
TAP	9	192	2
TAP	9	192	7
TAP	10	0	4
TAP	10	96	5
TAP	10	192	3
TAP	10	192	6
TAP	11	0	3
TAP	11	96	2
TAP	11	192	1
TAP	11	192	4
TAP	12	0	7
TAP	12	96	6
TAP	12	192	0
TAP	12	192	5
TAP	13	0	1
TAP	13	96	2
TAP	13	192	1
TAP	13	192	3
TAP	14	0	6
TAP	14	96	5
TAP	14	192	4
TAP	14	192	6
TAP	15	0	1
TAP	15	96	2
TAP	15	192	0
TAP	15	192	3
TAP	16	0	6
TAP	16	96	5
TAP	16	192	4
TAP	16	192	7
TAP	17	0	2
TAP	17	0	3
TAP	17	96	2
TAP	17	96	3
TAP	17	192	1
TAP	17	192	4
TAP	18	0	4
TAP	18	0	5
TAP	18	96	4
TAP	18	96	5
TAP	18	192	3
TAP	18	192	6
TAP	19	0	0
TAP	19	0	1
TAP	19	96	0
TAP	19	96	1
TAP	19	192	2
TAP	19	192	7
TAP	20	0	6
TAP	20	0	7
TAP	20	96	6
TAP	20	96	7
TAP	20	192	0
TAP	20	192	5
TAP	21	0	2
TAP	21	0	3
TAP	21	96	2
TAP	21	96	3
TAP	21	192	6
TAP	21	192	7
TAP	22	0	4
TAP	22	0	5
TAP	22	96	4
TAP	22	96	5
TAP	22	192	0
TAP	22	192	1
TAP	23	0	6
TAP	23	96	7
TAP	23	192	0
STR	23	288	1
SCR	23	288	1	96	192	5
TAP	25	0	7
TAP	25	96	6
TAP	25	192	5
TAP	25	288	4
HLD	26	0	3	96
TAP	26	192	0
TAP	26	192	1
TAP	27	0	0
TAP	27	96	1
TAP	27	192	2
TAP	27	288	3
HLD	28	0	4	96
TAP	28	192	6
TAP	28	192	7
TAP	29	0	2
TAP	29	96	3
TAP	29	192	4
TAP	29	288	5
HLD	30	0	6	96
TAP	30	192	0
TAP	30	192	1
HLD	31	0	4	96
HLD	31	0	5	96
HLD	31	192	2	96
HLD	31	192	3	96
STR	32	0	1
SLR	32	0	1	96	288	0
STR	32	0	6
SLL	32	0	6	96	288	7
TAP	33	192	4
TAP	33	192	5
TAP	33	288	6
TAP	33	288	7
TAP	34	0	0
TAP	34	0	1
TAP	34	192	2
TAP	34	192	3
TAP	34	288	0
TAP	34	288	1
TAP	35	0	6
TAP	35	0	7
TAP	35	192	3
TAP	35	192	4
TAP	35	288	5
TAP	36	0	3
TAP	36	0	4
TAP	36	96	2
TAP	36	192	3
TAP	36	192	4
STR	36	288	5
SI_	36	288	5	96	96	2
TAP	37	192	2
TAP	37	192	3
TAP	37	288	0
TAP	37	288	1
TAP	38	0	6
TAP	38	0	7
TAP	38	192	4
TAP	38	192	5
TAP	38	288	6
TAP	38	288	7
TAP	39	0	0
TAP	39	0	1
TAP	39	192	0
TAP	39	192	7
TAP	39	288	1
TAP	40	0	0
TAP	40	0	7
TAP	40	96	6
TAP	40	192	0
TAP	40	192	7
STR	40	288	1
SI_	40	288	1	96	96	6
STR	41	192	2
SI_	41	192	2	96	96	7
STR	41	192	3
SI_	41	192	3	96	96	6
STR	42	192	4
SI_	42	192	4	96	96	1
STR	42	192	5
SI_	42	192	5	96	96	0
STR	43	192	7
SCR	43	192	7	96	288	5
TAP	45	0	1
TAP	45	0	6
TAP	45	96	0
TAP	45	96	7
STR	45	192	6
SI_	45	192	6	96	96	3
STR	45	192	7
SI_	45	192	7	96	96	2
STR	46	192	0
SI_	46	192	0	96	96	5
STR	46	192	1
SI_	46	192	1	96	96	4
STR	47	192	0
SCL	47	192	0	96	288	2
TAP	49	0	2
TAP	49	0	5
TAP	49	96	3
TAP	49	96	4
HLD	49	192	2	96
TAP	50	0	1
TAP	50	0	3
HLD	50	192	5	96
TAP	51	0	4
TAP	51	0	6
HLD	51	192	1	96
TAP	52	0	0
TAP	52	0	2
HLD	52	192	6	96
TAP	53	0	5
TAP	53	0	7
TAP	53	192	0
TAP	53	192	7
TAP	53	288	1
TAP	53	288	6
HLD	54	0	5	96
TAP	54	192	4
TAP	54	192	6
HLD	55	0	2	96
TAP	55	192	1
TAP	55	192	3
HLD	56	0	6	96
TAP	56	192	5
TAP	56	192	7
BRK	57	0	1
TAP	57	192	5
TAP	57	240	5
TAP	57	288	5
TAP	58	0	4
TAP	58	0	6
TAP	58	192	2
TAP	58	240	2
TAP	58	288	2
TAP	59	0	1
TAP	59	0	3
TAP	59	192	3
TAP	59	192	4
TAP	59	288	6
TAP	60	0	3
TAP	60	0	4
TAP	60	96	1
TAP	60	192	3
TAP	60	192	4
STR	60	288	6
SI_	60	288	6	96	144	2
TAP	61	192	1
TAP	61	240	1
TAP	61	288	1
TAP	62	0	0
TAP	62	0	2
TAP	62	192	6
TAP	62	240	6
TAP	62	288	6
TAP	63	0	5
TAP	63	0	7
TAP	63	192	0
TAP	63	192	7
TAP	63	288	2
TAP	64	0	0
TAP	64	0	7
TAP	64	96	5
TAP	64	192	0
TAP	64	192	7
STR	64	288	2
SI_	64	288	2	96	144	6
TAP	66	0	4
TAP	66	0	5
TAP	66	96	3
TAP	66	192	4
TAP	66	192	5
TAP	66	288	6
TAP	67	0	4
TAP	67	0	5
TAP	67	96	6
TAP	67	96	7
TAP	67	192	0
TAP	67	192	1
TAP	68	0	2
TAP	68	0	3
TAP	68	96	4
TAP	68	192	2
TAP	68	192	3
TAP	68	288	1
TAP	69	0	2
TAP	69	0	3
TAP	69	96	0
TAP	69	96	1
TAP	69	192	6
TAP	69	192	7
TAP	70	0	0
TAP	70	0	1
TAP	70	96	2
TAP	70	192	0
TAP	70	192	1
TAP	70	288	7
TAP	71	0	0
TAP	71	0	1
TAP	71	96	6
TAP	71	96	7
TAP	71	192	4
TAP	71	192	5
TAP	72	0	6
TAP	72	0	7
TAP	72	96	5
TAP	72	192	6
TAP	72	192	7
TAP	72	288	0
TAP	73	0	6
TAP	73	0	7
TAP	73	96	0
TAP	73	96	1
TAP	73	192	2
TAP	73	192	3
TAP	74	0	4
TAP	74	0	5
TAP	74	96	4
TAP	74	96	5
TAP	74	192	2
TAP	74	192	3
TAP	74	288	2
TAP	74	288	3
TAP	75	0	0
TAP	75	0	1
TAP	75	96	0
TAP	75	96	1
TAP	75	192	6
TAP	75	192	7
TAP	76	0	2
TAP	76	0	3
TAP	76	96	2
TAP	76	96	3
TAP	76	192	4
TAP	76	192	5
TAP	76	288	4
TAP	76	288	5
HLD	77	0	6	768
HLD	77	0	7	768
BRK	80	0	0

T_REC_TAP	267
T_REC_BRK	4
T_REC_XTP	0
T_REC_HLD	16
T_REC_XHO	0
T_REC_STR	23
T_REC_BST	0
T_REC_XST	0
T_REC_TTP	0
T_REC_THO	0
T_REC_SLD	23
T_REC_ALL	333
T_NUM_TAP	290
T_NUM_BRK	4
T_NUM_HLD	16
T_NUM_SLD	23
T_NUM_ALL	333
T_JUDGE_TAP	294
T_JUDGE_HLD	60
T_JUDGE_SLD	23
T_JUDGE_ALL	377
TTM_EACHPAIRS	113
TTM_SCR_TAP	145000
TTM_SCR_BRK	10400
TTM_SCR_HLD	16000
TTM_SCR_SLD	34500
TTM_SCR_ALL	205900
TTM_SCR_S	199350
TTM_SCR_SS	205500
TTM_RAT_ACV	10019

