VERSION	0.00.00	1.03.00
FES_MODE	0
BPM_DEF	150.000	150.000	150.000	150.000
MET_DEF	4	4
RESOLUTION	384
CLK_DEF	384
COMPATIBLE_CODE	MA2

BPM	0	0	150.000
MET	0	0	4	4

TAP	9	0	5
TAP	9	192	5
TAP	10	0	6
TAP	10	192	6
STR	11	0	7
SI_	11	0	7	96	288	3
TAP	13	0	2
TAP	13	192	2
TAP	14	0	1
TAP	14	192	1
STR	15	0	0
SI_	15	0	0	96	288	4
TAP	17	0	5
TAP	17	192	5
TAP	18	0	6
TAP	18	192	6
STR	19	0	7
SI_	19	0	7	96	288	2
TAP	21	0	2
TAP	21	192	2
TAP	22	0	1
TAP	22	192	1
STR	23	0	0
SI_	23	0	0	96	288	5
HLD	25	0	7	192
HLD	26	0	6	192
HLD	27	0	5	192
TAP	28	0	4
TAP	28	96	4
TAP	28	192	4
HLD	29	0	3	192
HLD	30	0	2	192
HLD	31	0	1	192
TAP	32	0	0
TAP	32	96	0
TAP	32	192	0
BRK	33	0	0
BRK	33	0	7
TAP	34	0	0
TAP	34	96	0
TAP	34	192	0
TAP	35	0	1
TAP	35	96	1
TAP	35	192	1
TAP	36	0	2
TAP	36	192	2
TAP	37	0	3
TAP	37	192	3
TAP	37	192	4
TAP	38	0	4
TAP	38	96	4
TAP	38	192	4
TAP	39	0	5
TAP	39	96	5
TAP	39	192	5
TAP	40	0	6
TAP	40	192	6
TAP	41	0	7
TAP	41	192	0
TAP	41	192	7
STR	42	0	0
SI_	42	0	0	96	288	3
STR	44	0	7
SI_	44	0	7	96	288	4
STR	46	0	3
SI_	46	0	3	96	288	0
STR	48	0	4
SI_	48	0	4	96	288	7
HLD	50	0	0	384
HLD	50	0	1	384
HLD	52	0	6	384
HLD	52	0	7	384
HLD	54	0	4	384
HLD	54	0	5	384
HLD	56	0	2	384
HLD	56	0	3	384
TAP	58	0	0
TAP	58	96	0
TAP	58	192	0
TAP	59	0	1
TAP	59	96	1
TAP	59	192	1
TAP	60	0	2
TAP	60	96	2
TAP	60	192	2
TAP	61	0	3
TAP	61	96	3
TAP	61	192	3
TAP	61	192	4
TAP	62	0	4
TAP	62	96	4
TAP	62	192	4
TAP	63	0	5
TAP	63	96	5
TAP	63	192	5
TAP	64	0	6
TAP	64	96	6
TAP	64	192	6
TAP	65	0	7
TAP	65	96	7
TAP	65	192	0
TAP	65	192	7
STR	66	0	7
SI_	66	0	7	96	288	4
STR	68	0	0
SI_	68	0	0	96	288	3
TAP	70	0	7
TAP	70	96	7
TAP	70	192	7
TAP	71	0	6
TAP	71	96	6
TAP	71	192	6
TAP	72	0	5
TAP	72	96	5
TAP	72	192	5
TAP	73	0	4
TAP	73	96	4
TAP	73	192	3
TAP	73	192	4
TAP	74	0	3
TAP	74	96	3
TAP	74	192	3
TAP	75	0	2
TAP	75	96	2
TAP	75	192	2
TAP	76	0	1
TAP	76	96	1
TAP	76	192	1
TAP	77	0	0
TAP	77	96	0
TAP	77	192	0
TAP	77	192	7
TAP	78	0	6
TAP	78	96	6
TAP	78	192	6
TAP	78	192	7
TAP	79	0	1
TAP	79	96	1
TAP	79	192	0
TAP	79	192	1
TAP	80	0	0
TAP	80	0	7

T_REC_TAP	106
T_REC_BRK	2
T_REC_XTP	0
T_REC_HLD	14
T_REC_XHO	0
T_REC_STR	10
T_REC_BST	0
T_REC_XST	0
T_REC_TTP	0
T_REC_THO	0
T_REC_SLD	10
T_REC_ALL	142
T_NUM_TAP	116
T_NUM_BRK	2
T_NUM_HLD	14
T_NUM_SLD	10
T_NUM_ALL	142
T_JUDGE_TAP	118
T_JUDGE_HLD	88
T_JUDGE_SLD	10
T_JUDGE_ALL	216
TTM_EACHPAIRS	14
TTM_SCR_TAP	58000
TTM_SCR_BRK	5200
TTM_SCR_HLD	14000
TTM_SCR_SLD	15000
TTM_SCR_ALL	92200
TTM_SCR_S	89250
TTM_SCR_SS	92000
TTM_RAT_ACV	10021

