VERSION	0.00.00	1.03.00
FES_MODE	0
BPM_DEF	 94.000	126.000	160.000	 88.000
MET_DEF	4	4
RESOLUTION	384
CLK_DEF	384
COMPATIBLE_CODE	MA2

BPM	0	0	 94.000
BPM	1	192	 95.000
BPM	2	0	 97.000
BPM	2	192	 98.000
BPM	3	0	102.000
BPM	4	0	106.000
BPM	5	0	110.000
BPM	6	0	114.000
BPM	7	0	118.000
BPM	8	0	122.000
BPM	9	0	126.000
BPM	22	0	128.000
BPM	23	0	130.000
BPM	24	0	132.000
BPM	25	0	134.000
BPM	26	0	136.000
BPM	27	0	138.000
BPM	28	0	140.000
BPM	29	0	142.000
BPM	41	0	136.000
BPM	42	0	130.000
BPM	43	0	124.000
BPM	44	0	118.000
BPM	45	0	112.000
BPM	45	192	110.000
BPM	46	0	108.000
BPM	46	192	106.000
BPM	47	0	100.000
BPM	47	192	 98.000
BPM	48	0	 96.000
BPM	48	192	 94.000
BPM	49	0	 88.000
BPM	50	0	128.000
BPM	52	0	132.000
BPM	53	0	136.000
BPM	54	0	140.000
BPM	55	0	144.000
BPM	56	0	146.000
BPM	56	192	148.000
BPM	57	0	152.000
BPM	58	0	156.000
BPM	59	0	160.000
BPM	66	0	152.000
BPM	66	96	146.000
BPM	66	192	130.000
BPM	66	288	116.000
BPM	67	0	120.000
BPM	68	0	114.000
BPM	69	0	108.000
BPM	70	0	102.000
BPM	70	192	 98.000
BPM	70	288	 88.000
MET	0	0	4	4

STR	1	0	0
SI_	1	0	0	96	96	2
STR	1	96	2
SI_	1	96	2	96	96	4
STR	1	192	4
SI_	1	192	4	96	96	6
STR	1	288	6
SI_	1	288	6	96	96	0
STR	2	0	0
SI_	2	0	0	96	96	2
TAP	2	96	2
TAP	2	192	4
STR	2	288	3
SI_	2	288	3	96	96	0
TAP	2	288	5
STR	3	0	0
SI_	3	0	0	96	96	5
STR	3	96	5
SI_	3	96	5	96	96	2
STR	3	192	2
SI_	3	192	2	96	96	7
STR	3	288	7
SI_	3	288	7	96	96	4
STR	4	0	4
SI_	4	0	4	96	96	1
TAP	4	96	1
TAP	4	192	6
TAP	4	288	5
STR	4	288	7
SCR	4	288	7	96	96	2
STR	5	0	2
SCR	5	0	2	96	96	5
STR	5	96	5
SCR	5	96	5	96	96	0
STR	5	192	0
SCR	5	192	0	96	96	3
STR	5	288	3
SCR	5	288	3	96	96	6
STR	6	0	6
SCR	6	0	6	96	96	1
TAP	6	96	1
TAP	6	192	4
STR	6	288	3
SCL	6	288	3	96	96	7
TAP	6	288	5
STR	7	0	7
SCL	7	0	7	96	96	3
STR	7	96	3
SCL	7	96	3	96	96	7
STR	7	192	7
SCL	7	192	7	96	96	3
STR	7	288	3
SCL	7	288	3	96	96	7
STR	8	0	7
SCL	8	0	7	96	96	3
TAP	8	96	3
TAP	8	192	7
TAP	8	288	0
TAP	8	288	7
TAP	9	0	1
TAP	9	0	6
TAP	9	48	1
TAP	9	48	6
TAP	9	144	5
TAP	9	144	7
TAP	9	240	0
TAP	9	240	2
TAP	9	336	4
TAP	9	336	6
TAP	10	48	1
TAP	10	48	3
TAP	10	144	3
TAP	10	144	4
TAP	10	192	3
TAP	10	192	4
TAP	10	288	2
TAP	10	288	5
TAP	11	0	0
TAP	11	0	7
TAP	11	48	0
TAP	11	48	7
TAP	11	144	0
TAP	11	144	2
TAP	11	240	5
TAP	11	240	7
TAP	11	336	1
TAP	11	336	3
TAP	12	48	4
TAP	12	48	6
TAP	12	144	3
TAP	12	144	4
TAP	12	192	3
TAP	12	192	4
BRK	12	288	1
BRK	12	288	6
TAP	13	0	3
TAP	13	48	2
TAP	13	96	0
TAP	13	96	1
TAP	13	192	4
TAP	13	240	5
TAP	13	288	6
TAP	13	288	7
TAP	14	0	5
TAP	14	48	4
STR	14	96	2
SI_	14	96	2	96	72	7
STR	14	96	3
SI_	14	96	3	96	72	6
TAP	15	0	0
TAP	15	48	1
TAP	15	96	2
TAP	15	96	3
TAP	15	192	7
TAP	15	240	6
TAP	15	288	4
TAP	15	288	5
TAP	16	0	3
TAP	16	48	2
STR	16	96	0
SI_	16	96	0	96	96	5
STR	16	96	1
SI_	16	96	1	96	96	4
TAP	17	0	3
TAP	17	0	4
TAP	17	48	2
TAP	17	48	5
STR	17	96	1
SLR	17	96	1	96	120	0
STR	17	96	6
SLL	17	96	6	96	120	7
TAP	18	0	6
TAP	18	48	6
TAP	18	96	5
TAP	18	96	7
TAP	18	192	1
TAP	18	240	1
STR	18	288	0
SCR	18	288	0	96	240	7
TAP	18	288	2
TAP	19	336	0
TAP	20	0	0
TAP	20	0	7
TAP	20	96	5
TAP	20	96	6
TAP	20	192	1
TAP	20	192	2
TAP	20	288	0
TAP	20	288	7
STR	21	0	7
SI_	21	0	7	96	96	5
STR	21	96	5
SI_	21	96	5	96	96	3
STR	21	192	3
SI_	21	192	3	96	96	1
STR	21	288	1
SI_	21	288	1	96	96	7
STR	22	0	7
SI_	22	0	7	96	96	5
TAP	22	96	5
TAP	22	192	3
TAP	22	240	3
TAP	22	288	2
STR	22	288	4
SI_	22	288	4	96	96	7
STR	23	0	7
SI_	23	0	7	96	96	2
STR	23	96	2
SI_	23	96	2	96	96	5
STR	23	192	5
SI_	23	192	5	96	96	0
STR	23	288	0
SI_	23	288	0	96	96	3
STR	24	0	3
SI_	24	0	3	96	96	6
TAP	24	96	6
TAP	24	192	1
TAP	24	240	1
STR	24	288	0
SCL	24	288	0	96	96	5
TAP	24	288	2
STR	25	0	5
SCL	25	0	5	96	96	2
STR	25	96	2
SCL	25	96	2	96	96	7
STR	25	192	7
SCL	25	192	7	96	96	4
STR	25	288	4
SCL	25	288	4	96	96	1
STR	26	0	1
SCL	26	0	1	96	96	6
TAP	26	96	6
TAP	26	192	3
TAP	26	240	3
TAP	26	288	2
STR	26	288	4
SCR	26	288	4	96	96	0
STR	27	0	0
SCR	27	0	0	96	96	4
STR	27	96	4
SCR	27	96	4	96	96	0
STR	27	192	0
SCR	27	192	0	96	96	4
STR	27	288	4
SCR	27	288	4	96	96	0
STR	28	0	0
SCR	28	0	0	96	96	4
TAP	28	96	4
TAP	28	192	0
TAP	28	288	0
TAP	28	288	7
TAP	29	0	1
TAP	29	0	6
TAP	29	48	1
TAP	29	48	6
TAP	29	144	5
TAP	29	144	7
TAP	29	240	0
TAP	29	240	2
TAP	29	336	4
TAP	29	336	6
TAP	30	48	1
TAP	30	48	3
TAP	30	144	3
TAP	30	144	4
TAP	30	192	3
TAP	30	192	4
TAP	30	288	2
TAP	30	288	5
TAP	31	0	1
TAP	31	0	6
TAP	31	48	1
TAP	31	48	6
TAP	31	144	0
TAP	31	144	2
TAP	31	240	5
TAP	31	240	7
TAP	31	336	1
TAP	31	336	3
TAP	32	48	4
TAP	32	48	6
TAP	32	144	3
TAP	32	144	4
TAP	32	192	3
TAP	32	192	4
BRK	32	288	1
BRK	32	288	6
HLD	33	0	4	96
TAP	33	0	5
TAP	33	48	6
TAP	33	96	7
TAP	33	192	2
HLD	33	192	3	96
TAP	33	240	1
TAP	33	288	0
TAP	34	0	4
HLD	34	0	5	96
TAP	34	48	3
STR	34	96	2
SI_	34	96	2	96	96	6
SI_	34	96	2	96	96	7
HLD	35	0	0	96
TAP	35	0	1
TAP	35	48	2
TAP	35	96	3
TAP	35	192	6
HLD	35	192	7	96
TAP	35	240	5
TAP	35	288	4
TAP	36	0	0
HLD	36	0	1	96
TAP	36	48	7
STR	36	96	6
SI_	36	96	6	96	96	2
SI_	36	96	6	96	96	3
TAP	37	0	3
TAP	37	48	2
TAP	37	48	4
STR	37	96	1
SI_	37	96	1	96	96	6
STR	37	96	5
SI_	37	96	5	96	96	2
TAP	38	0	0
TAP	38	48	1
TAP	38	96	2
TAP	38	96	7
TAP	38	192	7
TAP	38	240	6
STR	38	288	0
SCL	38	288	0	96	240	1
TAP	38	288	5
TAP	39	336	7
TAP	40	0	0
TAP	40	0	7
TAP	40	96	1
TAP	40	96	2
TAP	40	192	5
TAP	40	192	6
TAP	40	288	0
TAP	40	288	7
STR	41	0	3
SCR	41	0	3	96	96	7
STR	41	96	7
SCR	41	96	7	96	96	3
STR	41	192	3
SCR	41	192	3	96	96	7
STR	41	288	7
SCR	41	288	7	96	96	3
STR	42	0	3
SCR	42	0	3	96	96	7
TAP	42	96	7
TAP	42	192	3
STR	42	288	2
SCL	42	288	2	96	96	7
TAP	42	288	4
STR	43	0	7
SCL	43	0	7	96	96	4
STR	43	96	4
SCL	43	96	4	96	96	1
STR	43	192	1
SCL	43	192	1	96	96	6
STR	43	288	6
SCL	43	288	6	96	96	3
STR	44	0	3
SCL	44	0	3	96	96	0
TAP	44	96	0
TAP	44	192	5
TAP	44	288	4
STR	44	288	6
SI_	44	288	6	96	96	1
STR	45	0	1
SI_	45	0	1	96	96	4
STR	45	96	4
SI_	45	96	4	96	96	7
STR	45	192	7
SI_	45	192	7	96	96	2
STR	45	288	2
SI_	45	288	2	96	96	5
STR	46	0	5
SI_	46	0	5	96	96	0
TAP	46	96	0
TAP	46	192	3
STR	46	288	2
SI_	46	288	2	96	96	0
TAP	46	288	4
STR	47	0	0
SI_	47	0	0	96	96	6
STR	47	96	6
SI_	47	96	6	96	96	4
STR	47	192	4
SI_	47	192	4	96	96	2
STR	47	288	2
SI_	47	288	2	96	96	0
STR	48	0	0
SI_	48	0	0	96	96	6
TAP	48	96	6
TAP	48	192	4
TAP	48	288	3
STR	48	288	5
SXR	48	288	5	96	336	2
TAP	49	0	5
BRK	50	0	0
BRK	50	96	1
BRK	50	192	2
BRK	50	288	0
BRK	50	288	7
STR	51	0	6
SI_	51	0	6	96	96	0
STR	51	96	0
SI_	51	96	0	96	96	2
STR	51	192	2
SI_	51	192	2	96	96	4
STR	51	288	4
SI_	51	288	4	96	96	6
STR	52	0	6
SI_	52	0	6	96	96	0
TAP	52	96	0
TAP	52	192	2
TAP	52	240	2
STR	52	288	0
SI_	52	288	0	96	96	5
TAP	52	288	4
STR	53	0	5
SI_	53	0	5	96	96	2
STR	53	96	2
SI_	53	96	2	96	96	7
STR	53	192	7
SI_	53	192	7	96	96	4
STR	53	288	4
SI_	53	288	4	96	96	1
STR	54	0	1
SI_	54	0	1	96	96	6
TAP	54	96	6
TAP	54	192	3
TAP	54	240	3
TAP	54	288	1
STR	54	288	5
SCR	54	288	5	96	96	0
STR	55	0	0
SCR	55	0	0	96	96	3
STR	55	96	3
SCR	55	96	3	96	96	6
STR	55	192	6
SCR	55	192	6	96	96	1
STR	55	288	1
SCR	55	288	1	96	96	4
STR	56	0	4
SCR	56	0	4	96	96	7
TAP	56	96	7
TAP	56	192	2
TAP	56	240	2
STR	56	288	0
SCL	56	288	0	96	96	4
TAP	56	288	4
STR	57	0	4
SCL	57	0	4	96	96	0
STR	57	96	0
SCL	57	96	0	96	96	4
STR	57	192	4
SCL	57	192	4	96	96	0
STR	57	288	0
SCL	57	288	0	96	96	4
STR	58	0	4
SCL	58	0	4	96	96	0
TAP	58	96	0
TAP	58	192	4
TAP	58	240	4
TAP	58	288	0
TAP	58	288	7
TAP	59	0	1
TAP	59	0	6
TAP	59	48	1
TAP	59	48	6
TAP	59	144	5
TAP	59	144	7
TAP	59	240	0
TAP	59	240	2
TAP	59	336	4
TAP	59	336	6
TAP	60	48	1
TAP	60	48	3
TAP	60	144	3
TAP	60	144	4
TAP	60	192	3
TAP	60	192	4
TAP	60	288	2
TAP	60	288	5
TAP	61	0	1
TAP	61	0	6
TAP	61	48	1
TAP	61	48	6
TAP	61	144	0
TAP	61	144	2
TAP	61	240	5
TAP	61	240	7
TAP	61	336	1
TAP	61	336	3
TAP	62	48	4
TAP	62	48	6
TAP	62	144	3
TAP	62	144	4
TAP	62	192	3
TAP	62	192	4
BRK	62	288	1
BRK	62	288	6
TAP	63	0	1
TAP	63	24	0
TAP	63	48	1
TAP	63	72	0
TAP	63	96	2
TAP	63	120	7
TAP	63	144	2
TAP	63	168	7
STR	63	192	3
SI_	63	192	3	96	48	0
TAP	63	216	6
TAP	63	240	3
TAP	63	264	6
TAP	63	288	3
TAP	64	0	6
TAP	64	24	7
TAP	64	48	6
TAP	64	72	7
TAP	64	96	5
TAP	64	120	0
TAP	64	144	5
TAP	64	168	0
STR	64	192	4
SI_	64	192	4	96	48	7
TAP	64	216	1
TAP	64	240	4
TAP	64	264	1
TAP	64	288	4
TAP	65	0	2
TAP	65	24	7
TAP	65	48	2
TAP	65	72	7
TAP	65	96	3
TAP	65	120	6
TAP	65	144	3
TAP	65	168	6
STR	65	192	4
SI_	65	192	4	96	48	1
TAP	65	216	5
TAP	65	240	4
TAP	65	264	5
TAP	65	288	4
TAP	66	0	5
TAP	66	24	0
TAP	66	48	5
TAP	66	72	0
TAP	66	96	4
TAP	66	120	1
TAP	66	144	4
TAP	66	168	1
STR	66	192	3
SI_	66	192	3	96	48	6
TAP	66	216	2
TAP	66	240	3
TAP	66	264	2
BRK	66	288	3
BST	67	0	0
SCL	67	0	0	96	96	4
STR	67	96	4
SCL	67	96	4	96	96	0
STR	67	192	0
SCL	67	192	0	96	96	4
STR	67	288	4
SUL	67	288	4	96	96	0
STR	68	0	0
SCL	68	0	0	96	96	4
STR	68	96	4
SUL	68	96	4	96	96	0
STR	68	192	0
SUL	68	192	0	96	96	4
STR	68	288	4
SCL	68	288	4	96	96	1
STR	69	0	1
SI_	69	0	1	96	96	4
STR	69	96	4
SI_	69	96	4	96	96	0
STR	69	192	0
SI_	69	192	0	96	96	5
BRK	69	288	5
STR	70	0	6
SI_	70	0	6	96	96	1
STR	70	96	1
SI_	70	96	1	96	96	5
STR	70	192	5
SI_	70	192	5	96	96	2
TAP	70	288	2
BRK	71	0	1

T_REC_TAP	284
T_REC_BRK	14
T_REC_XTP	0
T_REC_HLD	6
T_REC_XHO	0
T_REC_STR	122
T_REC_BST	1
T_REC_XST	0
T_REC_TTP	0
T_REC_THO	0
T_REC_SLD	125
T_REC_ALL	552
T_NUM_TAP	406
T_NUM_BRK	15
T_NUM_HLD	6
T_NUM_SLD	125
T_NUM_ALL	552
T_JUDGE_TAP	421
T_JUDGE_HLD	12
T_JUDGE_SLD	125
T_JUDGE_ALL	558
TTM_EACHPAIRS	100
TTM_SCR_TAP	203000
TTM_SCR_BRK	39000
TTM_SCR_HLD	6000
TTM_SCR_SLD	187500
TTM_SCR_ALL	435500
TTM_SCR_S	421000
TTM_SCR_SS	434000
TTM_RAT_ACV	10034

