VERSION	0.00.00	1.03.00
FES_MODE	0
BPM_DEF	 94.000	126.000	160.000	 88.000
MET_DEF	4	4
RESOLUTION	384
CLK_DEF	384
COMPATIBLE_CODE	MA2

BPM	0	0	 94.000
BPM	1	192	 95.000
BPM	2	0	 97.000
BPM	2	192	 98.000
BPM	3	0	102.000
BPM	4	0	106.000
BPM	5	0	110.000
BPM	6	0	114.000
BPM	7	0	118.000
BPM	8	0	122.000
BPM	9	0	126.000
BPM	22	0	128.000
BPM	23	0	130.000
BPM	24	0	132.000
BPM	25	0	134.000
BPM	26	0	136.000
BPM	27	0	138.000
BPM	28	0	140.000
BPM	29	0	142.000
BPM	41	0	136.000
BPM	42	0	130.000
BPM	43	0	124.000
BPM	44	0	118.000
BPM	45	0	112.000
BPM	45	192	110.000
BPM	46	0	108.000
BPM	46	192	106.000
BPM	47	0	100.000
BPM	47	192	 98.000
BPM	48	0	 96.000
BPM	48	192	 94.000
BPM	49	0	 88.000
BPM	50	0	128.000
BPM	52	0	132.000
BPM	53	0	136.000
BPM	54	0	140.000
BPM	55	0	144.000
BPM	56	0	146.000
BPM	56	192	148.000
BPM	57	0	152.000
BPM	58	0	156.000
BPM	59	0	160.000
BPM	66	0	152.000
BPM	66	96	146.000
BPM	66	192	130.000
BPM	66	288	116.000
BPM	67	0	120.000
BPM	68	0	114.000
BPM	69	0	108.000
BPM	70	0	102.000
BPM	70	192	 98.000
BPM	70	288	 88.000
MET	0	0	4	4

TAP	1	0	2
TAP	1	96	2
TAP	1	96	3
TAP	1	192	5
TAP	1	288	4
TAP	1	288	5
TAP	2	0	2
TAP	2	96	2
TAP	2	96	3
TAP	2	192	6
TAP	2	192	7
TAP	2	288	1
TAP	2	288	4
TAP	3	0	5
TAP	3	96	4
TAP	3	96	5
TAP	3	192	2
TAP	3	288	2
TAP	3	288	3
TAP	4	0	5
TAP	4	96	4
TAP	4	96	5
TAP	4	192	0
TAP	4	192	1
TAP	4	288	3
TAP	4	288	6
TAP	5	0	1
TAP	5	48	0
TAP	5	48	2
TAP	5	96	6
TAP	5	144	5
TAP	5	144	7
TAP	5	192	1
TAP	5	240	0
TAP	5	240	2
TAP	5	288	6
TAP	5	336	5
TAP	5	336	7
TAP	6	0	2
TAP	6	48	1
TAP	6	48	3
TAP	6	96	5
TAP	6	144	4
TAP	6	144	6
TAP	6	192	2
TAP	6	240	3
TAP	6	288	1
TAP	6	288	4
TAP	7	0	6
TAP	7	48	5
TAP	7	48	7
TAP	7	96	1
TAP	7	144	0
TAP	7	144	2
TAP	7	192	6
TAP	7	240	5
TAP	7	240	7
TAP	7	288	1
TAP	7	336	0
TAP	7	336	2
TAP	8	0	5
TAP	8	48	4
TAP	8	48	6
TAP	8	96	2
TAP	8	144	1
TAP	8	144	3
TAP	8	192	5
TAP	8	240	4
TAP	8	288	3
TAP	8	288	6
HLD	9	0	2	96
TAP	9	48	0
HLD	9	96	3	96
TAP	9	144	0
HLD	9	192	2	96
TAP	9	240	0
HLD	9	288	3	96
TAP	9	336	0
HLD	10	0	2	96
TAP	10	48	0
HLD	10	96	3	96
TAP	10	144	0
TAP	10	192	2
TAP	10	240	2
TAP	10	288	1
TAP	10	288	4
HLD	11	0	5	96
TAP	11	48	7
HLD	11	96	4	96
TAP	11	144	7
HLD	11	192	5	96
TAP	11	240	7
HLD	11	288	4	96
TAP	11	336	7
HLD	12	0	5	96
TAP	12	48	7
HLD	12	96	4	96
TAP	12	144	7
TAP	12	192	5
TAP	12	240	5
TAP	12	288	3
TAP	12	288	6
STR	13	0	3
SI_	13	0	3	96	48	1
STR	13	0	4
SI_	13	0	4	96	48	0
STR	13	192	3
SI_	13	192	3	96	48	7
STR	13	192	4
SI_	13	192	4	96	48	6
TAP	14	0	1
TAP	14	0	4
TAP	14	48	1
TAP	14	48	4
STR	14	96	2
SUR	14	96	2	96	96	7
STR	14	96	3
SCR	14	96	3	96	96	7
STR	15	0	0
SI_	15	0	0	96	48	2
STR	15	0	7
SI_	15	0	7	96	48	3
STR	15	192	0
SI_	15	192	0	96	48	4
STR	15	192	7
SI_	15	192	7	96	48	5
TAP	16	0	0
TAP	16	0	5
TAP	16	48	0
TAP	16	48	5
STR	16	96	6
SUR	16	96	6	96	96	3
STR	16	96	7
SCR	16	96	7	96	96	3
HLD	17	0	1	192
TAP	17	96	0
HLD	17	192	6	192
TAP	17	288	7
HLD	18	0	1	96
HLD	18	96	3	96
HLD	18	192	4	96
STR	18	288	6
SCR	18	288	6	96	240	5
TAP	19	336	0
TAP	19	336	5
TAP	20	0	0
TAP	20	0	5
TAP	20	96	4
TAP	20	96	5
BRK	20	192	2
BRK	20	192	7
BRK	20	288	0
BRK	20	288	5
STR	21	0	5
SI_	21	0	5	96	48	2
STR	21	0	6
SI_	21	0	6	96	48	1
STR	21	192	5
SI_	21	192	5	96	48	2
STR	21	192	6
SI_	21	192	6	96	48	1
TAP	22	0	4
TAP	22	0	6
TAP	22	48	5
TAP	22	96	1
TAP	22	96	3
TAP	22	144	2
TAP	22	192	3
TAP	22	192	7
TAP	22	240	5
TAP	22	288	0
TAP	22	288	4
TAP	22	336	2
STR	23	0	5
SI_	23	0	5	96	48	2
STR	23	0	6
SI_	23	0	6	96	48	1
STR	23	192	5
SI_	23	192	5	96	48	2
STR	23	192	6
SI_	23	192	6	96	48	1
TAP	24	0	1
TAP	24	0	3
TAP	24	48	2
TAP	24	96	4
TAP	24	96	6
TAP	24	144	5
TAP	24	192	0
TAP	24	192	4
TAP	24	240	2
TAP	24	288	3
TAP	24	288	7
TAP	24	336	5
STR	25	0	5
SI_	25	0	5	96	48	3
STR	25	0	6
SI_	25	0	6	96	48	2
STR	25	192	5
SI_	25	192	5	96	48	1
STR	25	192	6
SI_	25	192	6	96	48	0
TAP	26	0	5
TAP	26	0	7
TAP	26	48	6
TAP	26	96	0
TAP	26	96	2
TAP	26	144	1
TAP	26	192	3
TAP	26	192	7
TAP	26	240	5
TAP	26	288	0
TAP	26	288	4
TAP	26	336	2
STR	27	0	5
SI_	27	0	5	96	48	3
STR	27	0	6
SI_	27	0	6	96	48	2
STR	27	192	5
SI_	27	192	5	96	48	1
STR	27	192	6
SI_	27	192	6	96	48	0
TAP	28	0	0
TAP	28	0	7
TAP	28	48	1
TAP	28	48	6
STR	28	96	2
SCR	28	96	2	96	48	5
TAP	28	96	5
BRK	28	288	0
BRK	28	288	7
HLD	29	0	2	96
TAP	29	48	0
HLD	29	96	4	96
TAP	29	144	0
HLD	29	192	2	96
TAP	29	240	0
HLD	29	288	4	96
TAP	29	336	0
HLD	30	0	2	96
TAP	30	48	0
HLD	30	96	4	96
TAP	30	144	0
TAP	30	192	2
TAP	30	240	2
TAP	30	288	1
TAP	30	288	5
HLD	31	0	5	96
TAP	31	48	7
HLD	31	96	3	96
TAP	31	144	7
HLD	31	192	5	96
TAP	31	240	7
HLD	31	288	3	96
TAP	31	336	7
HLD	32	0	5	96
TAP	32	48	7
HLD	32	96	3	96
TAP	32	144	7
TAP	32	192	5
TAP	32	240	5
TAP	32	288	2
TAP	32	288	6
HLD	33	0	0	48
HLD	33	0	5	48
HLD	33	96	2	48
HLD	33	96	7	48
HLD	33	192	0	48
HLD	33	192	5	48
HLD	33	288	2	48
HLD	33	288	7	48
STR	34	0	4
SCL	34	0	4	96	48	1
STR	34	0	5
SUL	34	0	5	96	48	0
STR	34	192	2
SUR	34	192	2	96	48	7
STR	34	192	3
SCR	34	192	3	96	48	6
HLD	35	0	3	48
HLD	35	0	6	48
HLD	35	96	1	48
HLD	35	96	4	48
HLD	35	192	3	48
HLD	35	192	5	48
HLD	35	288	2	48
HLD	35	288	4	48
STR	36	0	0
SCL	36	0	0	96	48	5
STR	36	0	1
SUL	36	0	1	96	48	4
STR	36	192	6
SUR	36	192	6	96	48	3
STR	36	192	7
SCR	36	192	7	96	48	2
TAP	37	0	3
STR	37	0	5
SI_	37	0	5	96	48	0
TAP	37	48	2
TAP	37	96	1
TAP	37	192	3
STR	37	192	4
SI_	37	192	4	96	48	0
TAP	37	240	2
TAP	37	288	1
STR	38	0	2
SI_	38	0	2	96	48	7
TAP	38	0	4
TAP	38	48	5
TAP	38	96	6
STR	38	192	3
SI_	38	192	3	96	48	7
TAP	38	192	4
TAP	38	240	5
TAP	38	288	6
TAP	39	0	3
TAP	39	0	4
TAP	39	96	2
TAP	39	96	5
TAP	39	192	1
TAP	39	192	6
TAP	39	288	0
TAP	39	288	7
TAP	39	336	0
TAP	39	336	7
TAP	40	0	1
TAP	40	0	3
TAP	40	96	5
TAP	40	96	7
BRK	40	192	4
BRK	40	192	6
BRK	40	288	0
BRK	40	288	2
STR	41	0	6
SI_	41	0	6	96	48	4
STR	41	0	7
SI_	41	0	7	96	48	3
STR	41	192	0
SI_	41	192	0	96	48	4
STR	41	192	1
SI_	41	192	1	96	48	3
HLD	42	0	5	96
HLD	42	96	3	96
TAP	42	192	2
TAP	42	288	1
TAP	42	288	4
STR	43	0	0
SI_	43	0	0	96	48	4
STR	43	0	1
SI_	43	0	1	96	48	3
STR	43	192	6
SI_	43	192	6	96	48	4
STR	43	192	7
SI_	43	192	7	96	48	3
HLD	44	0	2	96
HLD	44	96	4	96
TAP	44	192	5
TAP	44	288	3
TAP	44	288	6
HLD	45	0	7	96
HLD	45	96	5	96
HLD	45	192	3	96
HLD	45	288	1	96
HLD	46	0	7	96
HLD	46	96	5	96
HLD	46	192	3	96
HLD	46	288	1	96
HLD	47	0	7	96
HLD	47	96	6	96
HLD	47	192	5	96
HLD	47	288	4	96
HLD	48	0	3	96
HLD	48	96	2	96
HLD	48	192	1	96
STR	48	288	0
SCL	48	288	0	96	288	1
BRK	50	0	0
BRK	50	96	1
BST	50	192	2
SI_	50	192	2	96	48	0
SI_	50	192	2	96	48	6
STR	51	0	4
SCL	51	0	4	96	48	2
STR	51	0	5
SUL	51	0	5	96	48	1
STR	51	192	5
SUL	51	192	5	96	48	1
STR	51	192	6
SXL	51	192	6	96	48	0
TAP	52	0	0
TAP	52	0	4
TAP	52	48	2
TAP	52	96	3
TAP	52	96	7
TAP	52	144	5
TAP	52	192	0
TAP	52	192	4
TAP	52	240	2
TAP	52	288	3
TAP	52	288	7
TAP	52	336	5
STR	53	0	4
SCL	53	0	4	96	48	2
STR	53	0	5
SUL	53	0	5	96	48	1
STR	53	192	5
SUL	53	192	5	96	48	1
STR	53	192	6
SXL	53	192	6	96	48	0
TAP	54	0	3
TAP	54	0	7
TAP	54	48	5
TAP	54	96	0
TAP	54	96	4
TAP	54	144	2
TAP	54	192	3
TAP	54	192	7
TAP	54	240	5
TAP	54	288	0
TAP	54	288	4
TAP	54	336	2
STR	55	0	4
SI_	55	0	4	96	48	1
STR	55	0	5
SI_	55	0	5	96	48	0
STR	55	192	4
SI_	55	192	4	96	48	1
STR	55	192	5
SI_	55	192	5	96	48	0
TAP	56	0	0
TAP	56	0	4
TAP	56	48	2
TAP	56	96	3
TAP	56	96	7
TAP	56	144	5
TAP	56	192	0
TAP	56	192	4
TAP	56	240	2
TAP	56	288	3
TAP	56	288	7
TAP	56	336	5
STR	57	0	4
SI_	57	0	4	96	48	2
STR	57	0	5
SI_	57	0	5	96	48	0
STR	57	192	4
SI_	57	192	4	96	48	1
STR	57	192	5
SI_	57	192	5	96	48	7
TAP	58	0	4
TAP	58	0	6
TAP	58	48	5
TAP	58	96	1
TAP	58	96	3
TAP	58	144	2
TAP	58	192	3
TAP	58	192	4
TAP	58	240	2
TAP	58	240	5
TAP	58	288	1
TAP	58	288	6
HLD	59	0	2	96
TAP	59	48	0
HLD	59	96	4	96
TAP	59	144	0
HLD	59	192	3	96
TAP	59	240	0
HLD	59	288	5	96
TAP	59	336	0
HLD	60	0	2	96
TAP	60	48	0
HLD	60	96	3	96
TAP	60	144	0
TAP	60	192	2
TAP	60	240	2
TAP	60	288	1
TAP	60	288	4
HLD	61	0	5	96
TAP	61	48	7
HLD	61	96	3	96
TAP	61	144	7
HLD	61	192	4	96
TAP	61	240	7
HLD	61	288	2	96
TAP	61	336	7
HLD	62	0	5	96
TAP	62	48	7
HLD	62	96	4	96
TAP	62	144	7
TAP	62	192	5
TAP	62	240	5
TAP	62	288	3
TAP	62	288	6
STR	63	0	3
SI_	63	0	3	96	48	1
TAP	63	48	3
STR	63	96	7
SI_	63	96	7	96	48	5
TAP	63	144	7
STR	63	192	4
SI_	63	192	4	96	48	0
TAP	63	240	4
BRK	63	288	7
STR	64	0	4
SI_	64	0	4	96	48	6
TAP	64	48	4
STR	64	96	0
SI_	64	96	0	96	48	2
TAP	64	144	0
STR	64	192	3
SI_	64	192	3	96	48	7
TAP	64	240	3
BRK	64	288	0
STR	65	0	1
SI_	65	0	1	96	48	5
TAP	65	48	1
STR	65	96	6
SI_	65	96	6	96	48	0
TAP	65	144	6
STR	65	192	2
SI_	65	192	2	96	48	4
TAP	65	240	2
BRK	65	288	7
HLD	66	0	7	48
HLD	66	48	5	48
HLD	66	96	7	48
HLD	66	144	0	48
HLD	66	192	2	48
HLD	66	240	0	48
BRK	66	288	7
TAP	67	0	1
TAP	67	96	0
TAP	67	96	2
TAP	67	192	6
TAP	67	288	5
TAP	67	288	7
TAP	68	0	2
TAP	68	96	1
TAP	68	96	3
TAP	68	192	5
TAP	68	288	4
TAP	68	288	6
HLD	69	0	2	192
TAP	69	96	3
HLD	69	192	5	192
TAP	69	288	4
HLD	70	0	3	96
TAP	70	96	4
TAP	70	192	2
TAP	70	192	5
TAP	70	288	1
STR	70	288	6
SSR	70	288	6	96	384	2

T_REC_TAP	294
T_REC_BRK	16
T_REC_XTP	0
T_REC_HLD	85
T_REC_XHO	0
T_REC_STR	77
T_REC_BST	1
T_REC_XST	0
T_REC_TTP	0
T_REC_THO	0
T_REC_SLD	79
T_REC_ALL	552
T_NUM_TAP	371
T_NUM_BRK	17
T_NUM_HLD	85
T_NUM_SLD	79
T_NUM_ALL	552
T_JUDGE_TAP	388
T_JUDGE_HLD	200
T_JUDGE_SLD	79
T_JUDGE_ALL	667
TTM_EACHPAIRS	131
TTM_SCR_TAP	185500
TTM_SCR_BRK	44200
TTM_SCR_HLD	85000
TTM_SCR_SLD	118500
TTM_SCR_ALL	433200
TTM_SCR_S	418600
TTM_SCR_SS	431500
TTM_RAT_ACV	10039

