VERSION	0.00.00	1.03.00
FES_MODE	0
BPM_DEF	 94.000	126.000	160.000	 88.000
MET_DEF	4	4
RESOLUTION	384
CLK_DEF	384
COMPATIBLE_CODE	MA2

BPM	0	0	 94.000
BPM	1	192	 95.000
BPM	2	0	 97.000
BPM	2	192	 98.000
BPM	3	0	102.000
BPM	4	0	106.000
BPM	5	0	110.000
BPM	6	0	114.000
BPM	7	0	118.000
BPM	8	0	122.000
BPM	9	0	126.000
BPM	22	0	128.000
BPM	23	0	130.000
BPM	24	0	132.000
BPM	25	0	134.000
BPM	26	0	136.000
BPM	27	0	138.000
BPM	28	0	140.000
BPM	29	0	142.000
BPM	41	0	136.000
BPM	42	0	130.000
BPM	43	0	124.000
BPM	44	0	118.000
BPM	45	0	112.000
BPM	45	192	110.000
BPM	46	0	108.000
BPM	46	192	106.000
BPM	47	0	100.000
BPM	47	192	 98.000
BPM	48	0	 96.000
BPM	48	192	 94.000
BPM	49	0	 88.000
BPM	50	0	128.000
BPM	52	0	132.000
BPM	53	0	136.000
BPM	54	0	140.000
BPM	55	0	144.000
BPM	56	0	146.000
BPM	56	192	148.000
BPM	57	0	152.000
BPM	58	0	156.000
BPM	59	0	160.000
BPM	66	0	152.000
BPM	66	96	146.000
BPM	66	192	130.000
BPM	66	288	116.000
BPM	67	0	120.000
BPM	68	0	114.000
BPM	69	0	108.000
BPM	70	0	102.000
BPM	70	192	 98.000
BPM	70	288	 88.000
MET	0	0	4	4

HLD	1	0	2	96
HLD	1	96	3	96
TAP	1	192	4
TAP	1	288	3
TAP	1	288	4
HLD	2	0	5	96
HLD	2	96	4	96
TAP	2	192	3
TAP	2	288	3
TAP	2	288	4
HLD	3	0	2	96
HLD	3	96	3	96
TAP	3	192	4
TAP	3	288	4
TAP	3	288	5
HLD	4	0	5	96
HLD	4	96	4	96
TAP	4	192	3
TAP	4	288	2
TAP	4	288	3
HLD	5	0	2	96
HLD	5	96	3	96
TAP	5	192	4
TAP	5	288	4
TAP	5	288	6
HLD	6	0	5	96
HLD	6	96	4	96
TAP	6	192	3
TAP	6	288	1
TAP	6	288	3
HLD	7	0	2	96
HLD	7	96	3	96
TAP	7	192	4
TAP	7	288	5
TAP	7	288	7
HLD	8	0	5	96
HLD	8	96	4	96
TAP	8	192	3
TAP	8	288	0
TAP	8	288	2
TAP	9	0	5
TAP	9	96	4
TAP	9	96	6
TAP	9	192	2
TAP	9	288	1
TAP	9	288	3
TAP	10	0	5
TAP	10	0	7
TAP	10	96	0
TAP	10	96	2
TAP	10	192	3
TAP	10	192	4
TAP	10	288	1
TAP	10	288	6
TAP	11	0	2
TAP	11	96	1
TAP	11	96	3
TAP	11	192	5
TAP	11	288	4
TAP	11	288	6
TAP	12	0	0
TAP	12	0	2
TAP	12	96	5
TAP	12	96	7
TAP	12	192	3
TAP	12	192	4
TAP	12	288	1
TAP	12	288	6
STR	13	0	4
SI_	13	0	4	96	96	0
STR	13	0	5
SI_	13	0	5	96	96	0
TAP	13	288	6
TAP	13	288	7
STR	14	0	2
SI_	14	0	2	96	96	7
STR	14	0	3
SI_	14	0	3	96	96	7
TAP	14	288	0
TAP	14	288	1
STR	15	0	6
SI_	15	0	6	96	96	3
STR	15	0	7
SI_	15	0	7	96	96	3
TAP	15	288	4
TAP	15	288	5
STR	16	0	0
SI_	16	0	0	96	96	4
STR	16	0	1
SI_	16	0	1	96	96	4
TAP	16	288	2
TAP	16	288	3
STR	17	0	6
SI_	17	0	6	96	48	3
STR	17	192	1
SI_	17	192	1	96	48	4
STR	18	0	6
SCL	18	0	6	96	48	3
STR	18	192	1
SCR	18	192	1	96	48	4
STR	19	0	7
SCL	19	0	7	96	192	0
TAP	20	0	0
TAP	20	0	2
TAP	20	96	5
TAP	20	96	7
TAP	20	192	3
TAP	20	192	4
BRK	20	288	1
BRK	20	288	6
HLD	21	0	1	96
HLD	21	96	3	96
TAP	21	192	4
TAP	21	288	4
TAP	21	288	5
HLD	22	0	6	96
HLD	22	96	4	96
TAP	22	192	3
TAP	22	288	2
TAP	22	288	3
HLD	23	0	1	96
HLD	23	96	3	96
TAP	23	192	4
TAP	23	288	3
TAP	23	288	5
HLD	24	0	6	96
HLD	24	96	4	96
TAP	24	192	3
TAP	24	288	2
TAP	24	288	4
HLD	25	0	1	96
HLD	25	96	3	96
TAP	25	192	4
TAP	25	288	5
TAP	25	288	7
HLD	26	0	6	96
HLD	26	96	4	96
TAP	26	192	3
TAP	26	288	0
TAP	26	288	2
HLD	27	0	1	96
HLD	27	96	3	96
TAP	27	192	5
TAP	27	288	0
TAP	27	288	7
HLD	28	0	6	96
HLD	28	96	4	96
TAP	28	192	2
TAP	28	288	0
TAP	28	288	7
TAP	29	0	5
TAP	29	96	4
TAP	29	96	6
TAP	29	192	2
TAP	29	288	1
TAP	29	288	3
TAP	30	0	5
TAP	30	0	7
TAP	30	96	0
TAP	30	96	2
TAP	30	192	3
TAP	30	192	4
TAP	30	288	1
TAP	30	288	6
TAP	31	0	2
TAP	31	96	1
TAP	31	96	3
TAP	31	192	5
TAP	31	288	4
TAP	31	288	6
TAP	32	0	0
TAP	32	0	2
TAP	32	96	5
TAP	32	96	7
TAP	32	192	3
TAP	32	192	4
TAP	32	288	1
TAP	32	288	6
STR	33	0	2
SUR	33	0	2	96	96	7
STR	33	0	3
SCR	33	0	3	96	96	6
TAP	33	288	0
TAP	33	288	1
STR	34	0	4
SCL	34	0	4	96	96	1
STR	34	0	5
SUL	34	0	5	96	96	0
TAP	34	288	6
TAP	34	288	7
STR	35	0	0
SCL	35	0	0	96	96	5
STR	35	0	1
SUL	35	0	1	96	96	4
TAP	35	288	2
TAP	35	288	3
STR	36	0	6
SUR	36	0	6	96	96	3
STR	36	0	7
SCR	36	0	7	96	96	2
TAP	36	288	4
TAP	36	288	5
STR	37	0	2
SI_	37	0	2	96	48	7
STR	37	192	5
SI_	37	192	5	96	48	0
STR	38	0	2
SCL	38	0	2	96	48	7
STR	38	192	5
SCR	38	192	5	96	48	0
STR	39	0	3
SCL	39	0	3	96	192	4
TAP	40	0	5
TAP	40	0	7
TAP	40	96	0
TAP	40	96	2
TAP	40	192	3
TAP	40	192	4
BRK	40	288	1
BRK	40	288	6
HLD	41	0	5	96
HLD	41	96	7	96
TAP	41	192	0
TAP	41	288	0
TAP	41	288	1
HLD	42	0	2	96
HLD	42	96	0	96
TAP	42	192	7
TAP	42	288	6
TAP	42	288	7
HLD	43	0	5	96
HLD	43	96	7	96
TAP	43	192	0
TAP	43	288	1
TAP	43	288	7
HLD	44	0	2	96
HLD	44	96	0	96
TAP	44	192	7
TAP	44	288	0
TAP	44	288	6
HLD	45	0	5	96
HLD	45	96	7	96
TAP	45	192	0
TAP	45	288	1
TAP	45	288	3
HLD	46	0	2	96
HLD	46	96	0	96
TAP	46	192	7
TAP	46	288	4
TAP	46	288	6
HLD	47	0	5	96
HLD	47	96	7	96
TAP	47	192	1
TAP	47	288	3
TAP	47	288	4
HLD	48	0	2	96
HLD	48	96	0	96
TAP	48	192	6
TAP	48	288	3
TAP	48	288	4
STR	49	0	0
SUR	49	0	0	96	192	0
TAP	50	0	0
TAP	50	96	1
TAP	50	192	2
BRK	50	288	0
BRK	50	288	7
HLD	51	0	6	96
TAP	51	0	7
HLD	51	96	4	96
TAP	51	192	3
TAP	51	288	0
TAP	51	288	5
TAP	52	0	0
HLD	52	0	1	96
HLD	52	96	3	96
TAP	52	192	4
TAP	52	288	2
TAP	52	288	7
HLD	53	0	6	96
TAP	53	0	7
HLD	53	96	4	96
TAP	53	192	2
TAP	53	288	0
TAP	53	288	5
TAP	54	0	0
HLD	54	0	1	96
HLD	54	96	3	96
TAP	54	192	5
TAP	54	288	2
TAP	54	288	7
HLD	55	0	5	96
TAP	55	0	7
HLD	55	96	4	96
TAP	55	192	2
TAP	55	288	0
TAP	55	288	5
TAP	56	0	0
HLD	56	0	2	96
HLD	56	96	3	96
TAP	56	192	5
TAP	56	288	2
TAP	56	288	7
TAP	57	0	0
HLD	57	0	6	96
HLD	57	96	4	96
TAP	57	192	2
TAP	57	288	0
TAP	57	288	5
HLD	58	0	1	96
TAP	58	0	7
HLD	58	96	3	96
TAP	58	192	5
TAP	58	288	2
TAP	58	288	7
TAP	59	0	5
TAP	59	96	4
TAP	59	96	6
TAP	59	192	2
TAP	59	288	1
TAP	59	288	3
TAP	60	0	5
TAP	60	0	7
TAP	60	96	0
TAP	60	96	2
TAP	60	192	3
TAP	60	192	4
TAP	60	288	1
TAP	60	288	6
TAP	61	0	2
TAP	61	96	1
TAP	61	96	3
TAP	61	192	5
TAP	61	288	4
TAP	61	288	6
TAP	62	0	0
TAP	62	0	2
TAP	62	96	5
TAP	62	96	7
TAP	62	192	3
TAP	62	192	4
TAP	62	288	1
TAP	62	288	6
TAP	63	0	4
TAP	63	0	5
TAP	63	96	3
TAP	63	96	6
TAP	63	192	2
TAP	63	192	3
TAP	63	288	1
TAP	63	288	4
TAP	64	0	2
TAP	64	0	7
TAP	64	96	0
TAP	64	96	5
TAP	64	192	0
TAP	64	192	7
TAP	64	288	1
TAP	64	288	6
TAP	65	0	2
TAP	65	0	3
TAP	65	96	1
TAP	65	96	4
TAP	65	192	4
TAP	65	192	5
TAP	65	288	3
TAP	65	288	6
TAP	66	0	0
TAP	66	0	5
TAP	66	96	2
TAP	66	96	7
TAP	66	192	0
TAP	66	192	7
TAP	66	288	1
TAP	66	288	6
STR	67	0	6
SCL	67	0	6	96	48	3
TAP	67	96	0
STR	67	192	1
SCR	67	192	1	96	48	4
TAP	67	288	7
STR	68	0	6
SUL	68	0	6	96	48	2
TAP	68	96	7
STR	68	192	1
SUR	68	192	1	96	48	5
TAP	68	288	0
STR	69	0	6
SCL	69	0	6	96	48	3
TAP	69	96	0
STR	69	192	1
SCR	69	192	1	96	48	4
TAP	69	288	7
STR	70	0	6
SUL	70	0	6	96	48	2
TAP	70	96	7
STR	70	192	1
SUR	70	192	1	96	48	5
TAP	70	288	0
STR	71	0	6
SSR	71	0	6	96	288	2

T_REC_TAP	259
T_REC_BRK	6
T_REC_XTP	0
T_REC_HLD	64
T_REC_XHO	0
T_REC_STR	36
T_REC_BST	0
T_REC_XST	0
T_REC_TTP	0
T_REC_THO	0
T_REC_SLD	36
T_REC_ALL	401
T_NUM_TAP	295
T_NUM_BRK	6
T_NUM_HLD	64
T_NUM_SLD	36
T_NUM_ALL	401
T_JUDGE_TAP	301
T_JUDGE_HLD	176
T_JUDGE_SLD	36
T_JUDGE_ALL	513
TTM_EACHPAIRS	117
TTM_SCR_TAP	147500
TTM_SCR_BRK	15600
TTM_SCR_HLD	64000
TTM_SCR_SLD	54000
TTM_SCR_ALL	281100
TTM_SCR_S	272100
TTM_SCR_SS	280500
TTM_RAT_ACV	10021

