VERSION	0.00.00	1.03.00
FES_MODE	0
BPM_DEF	 94.000	126.000	160.000	 88.000
MET_DEF	4	4
RESOLUTION	384
CLK_DEF	384
COMPATIBLE_CODE	MA2

BPM	0	0	 94.000
BPM	1	192	 95.000
BPM	2	0	 97.000
BPM	2	192	 98.000
BPM	3	0	102.000
BPM	4	0	106.000
BPM	5	0	110.000
BPM	6	0	114.000
BPM	7	0	118.000
BPM	8	0	122.000
BPM	9	0	126.000
BPM	22	0	128.000
BPM	23	0	130.000
BPM	24	0	132.000
BPM	25	0	134.000
BPM	26	0	136.000
BPM	27	0	138.000
BPM	28	0	140.000
BPM	29	0	142.000
BPM	41	0	136.000
BPM	42	0	130.000
BPM	43	0	124.000
BPM	44	0	118.000
BPM	45	0	112.000
BPM	45	192	110.000
BPM	46	0	108.000
BPM	46	192	106.000
BPM	47	0	100.000
BPM	47	192	 98.000
BPM	48	0	 96.000
BPM	48	192	 94.000
BPM	49	0	 88.000
BPM	50	0	128.000
BPM	52	0	132.000
BPM	53	0	136.000
BPM	54	0	140.000
BPM	55	0	144.000
BPM	56	0	146.000
BPM	56	192	148.000
BPM	57	0	152.000
BPM	58	0	156.000
BPM	59	0	160.000
BPM	66	0	152.000
BPM	66	96	146.000
BPM	66	192	130.000
BPM	66	288	116.000
BPM	67	0	120.000
BPM	68	0	114.000
BPM	69	0	108.000
BPM	70	0	102.000
BPM	70	192	 98.000
BPM	70	288	 88.000
MET	0	0	4	4

TAP	1	0	3
TAP	1	0	4
TAP	1	96	2
TAP	1	96	3
TAP	1	192	3
TAP	1	192	4
TAP	1	288	2
TAP	1	288	3
TAP	2	0	3
TAP	2	0	4
TAP	2	96	4
TAP	2	96	5
TAP	2	192	3
TAP	2	192	4
TAP	2	288	2
TAP	2	288	5
TAP	3	0	3
TAP	3	0	4
TAP	3	96	1
TAP	3	96	2
TAP	3	192	3
TAP	3	192	4
TAP	3	288	1
TAP	3	288	2
TAP	4	0	3
TAP	4	0	4
TAP	4	96	5
TAP	4	96	6
TAP	4	192	3
TAP	4	192	4
TAP	4	288	2
TAP	4	288	5
TAP	5	0	2
TAP	5	0	3
TAP	5	96	0
TAP	5	96	1
TAP	5	192	2
TAP	5	192	3
TAP	5	288	0
TAP	5	288	1
TAP	6	0	4
TAP	6	0	5
TAP	6	96	6
TAP	6	96	7
TAP	6	192	4
TAP	6	192	5
TAP	6	288	3
TAP	6	288	6
TAP	7	0	2
TAP	7	0	3
TAP	7	96	0
TAP	7	96	7
TAP	7	192	2
TAP	7	192	3
TAP	7	288	0
TAP	7	288	7
TAP	8	0	4
TAP	8	0	5
TAP	8	96	0
TAP	8	96	7
TAP	8	192	4
TAP	8	192	5
TAP	8	288	3
TAP	8	288	6
BRK	9	0	7
TAP	9	96	6
TAP	9	192	5
TAP	9	288	4
TAP	10	0	3
TAP	10	96	2
TAP	10	192	1
TAP	11	0	0
TAP	11	96	1
TAP	11	192	2
TAP	11	288	3
TAP	12	0	4
TAP	12	96	5
TAP	12	192	6
STR	13	0	5
SCL	13	0	5	96	144	2
STR	14	0	1
SCL	14	0	1	96	144	6
STR	15	0	4
SCR	15	0	4	96	144	7
STR	16	0	0
SCR	16	0	0	96	144	3
STR	17	0	4
SUR	17	0	4	96	144	1
STR	17	0	5
SCR	17	0	5	96	144	0
STR	18	0	0
SUR	18	0	0	96	144	5
STR	18	0	1
SCR	18	0	1	96	144	4
STR	19	0	6
SCL	19	0	6	96	144	3
TAP	20	0	2
TAP	20	0	3
TAP	20	96	3
TAP	20	96	4
TAP	20	192	4
TAP	20	192	5
BRK	21	0	3
BRK	21	0	4
TAP	21	96	4
TAP	21	96	5
TAP	21	192	3
TAP	21	192	4
TAP	21	288	4
TAP	21	288	5
TAP	22	0	3
TAP	22	0	4
TAP	22	96	2
TAP	22	96	3
TAP	22	192	3
TAP	22	192	4
TAP	22	288	2
TAP	22	288	5
TAP	23	0	3
TAP	23	0	4
TAP	23	96	4
TAP	23	96	6
TAP	23	192	3
TAP	23	192	4
TAP	23	288	4
TAP	23	288	6
TAP	24	0	3
TAP	24	0	4
TAP	24	96	1
TAP	24	96	3
TAP	24	192	3
TAP	24	192	4
TAP	24	288	2
TAP	24	288	5
TAP	25	0	4
TAP	25	0	5
TAP	25	96	6
TAP	25	96	7
TAP	25	192	4
TAP	25	192	5
TAP	25	288	6
TAP	25	288	7
TAP	26	0	2
TAP	26	0	3
TAP	26	96	0
TAP	26	96	1
TAP	26	192	2
TAP	26	192	3
TAP	26	288	1
TAP	26	288	4
TAP	27	0	4
TAP	27	0	5
TAP	27	96	1
TAP	27	96	7
TAP	27	192	4
TAP	27	192	5
TAP	27	288	1
TAP	27	288	7
TAP	28	0	2
TAP	28	0	3
TAP	28	96	0
TAP	28	96	6
TAP	28	192	2
TAP	28	192	3
TAP	28	288	1
TAP	28	288	4
BRK	29	0	0
TAP	29	96	1
TAP	29	192	2
TAP	29	288	3
TAP	30	0	4
TAP	30	96	5
TAP	30	192	6
TAP	31	0	7
TAP	31	96	6
TAP	31	192	5
TAP	31	288	4
TAP	32	0	3
TAP	32	96	2
TAP	32	192	1
STR	33	0	3
SCL	33	0	3	96	144	0
STR	34	0	7
SCL	34	0	7	96	144	4
STR	35	0	2
SCR	35	0	2	96	144	5
STR	36	0	6
SCR	36	0	6	96	144	1
STR	37	0	2
SUR	37	0	2	96	144	7
STR	37	0	3
SCR	37	0	3	96	144	6
STR	38	0	6
SUR	38	0	6	96	144	3
STR	38	0	7
SCR	38	0	7	96	144	2
STR	39	0	1
SCR	39	0	1	96	144	4
TAP	40	0	4
TAP	40	0	5
TAP	40	96	3
TAP	40	96	4
TAP	40	192	2
TAP	40	192	3
BRK	41	0	2
BRK	41	0	3
TAP	41	96	0
TAP	41	96	6
TAP	41	192	2
TAP	41	192	3
TAP	41	288	0
TAP	41	288	6
TAP	42	0	4
TAP	42	0	5
TAP	42	96	1
TAP	42	96	7
TAP	42	192	4
TAP	42	192	5
TAP	42	288	3
TAP	42	288	6
TAP	43	0	2
TAP	43	0	3
TAP	43	96	0
TAP	43	96	1
TAP	43	192	2
TAP	43	192	3
TAP	43	288	0
TAP	43	288	1
TAP	44	0	4
TAP	44	0	5
TAP	44	96	6
TAP	44	96	7
TAP	44	192	4
TAP	44	192	5
TAP	44	288	3
TAP	44	288	6
TAP	45	0	3
TAP	45	0	4
TAP	45	96	1
TAP	45	96	3
TAP	45	192	3
TAP	45	192	4
TAP	45	288	1
TAP	45	288	3
TAP	46	0	3
TAP	46	0	4
TAP	46	96	4
TAP	46	96	6
TAP	46	192	3
TAP	46	192	4
TAP	46	288	2
TAP	46	288	5
TAP	47	0	3
TAP	47	0	4
TAP	47	96	2
TAP	47	96	3
TAP	47	192	3
TAP	47	192	4
TAP	47	288	2
TAP	47	288	3
TAP	48	0	3
TAP	48	0	4
TAP	48	96	4
TAP	48	96	5
TAP	48	192	3
TAP	48	192	4
TAP	48	288	2
TAP	48	288	5
STR	49	0	0
SCR	49	0	0	96	144	3
STR	49	0	7
SCL	49	0	7	96	144	4
TAP	50	0	3
TAP	50	96	4
TAP	50	192	3
BRK	50	288	2
BRK	50	288	5
TAP	51	0	3
TAP	51	0	4
TAP	51	96	1
TAP	51	96	2
TAP	51	192	3
TAP	51	192	4
TAP	51	288	1
TAP	51	288	2
TAP	52	0	3
TAP	52	0	4
TAP	52	96	5
TAP	52	96	6
TAP	52	192	3
TAP	52	192	4
TAP	52	288	2
TAP	52	288	5
TAP	53	0	3
TAP	53	0	4
TAP	53	96	0
TAP	53	96	2
TAP	53	192	3
TAP	53	192	4
TAP	53	288	0
TAP	53	288	2
TAP	54	0	3
TAP	54	0	4
TAP	54	96	5
TAP	54	96	7
TAP	54	192	3
TAP	54	192	4
TAP	54	288	2
TAP	54	288	5
TAP	55	0	3
TAP	55	0	4
TAP	55	96	0
TAP	55	96	1
TAP	55	192	3
TAP	55	192	4
TAP	55	288	0
TAP	55	288	1
TAP	56	0	3
TAP	56	0	4
TAP	56	96	6
TAP	56	96	7
TAP	56	192	3
TAP	56	192	4
TAP	56	288	2
TAP	56	288	5
TAP	57	0	3
TAP	57	0	4
TAP	57	96	1
TAP	57	96	6
TAP	57	192	3
TAP	57	192	4
TAP	57	288	1
TAP	57	288	6
TAP	58	0	3
TAP	58	0	4
TAP	58	96	0
TAP	58	96	7
TAP	58	192	3
TAP	58	192	4
TAP	58	288	2
TAP	58	288	5
BRK	59	0	0
BRK	59	0	1
TAP	59	96	0
TAP	59	96	1
TAP	59	192	2
TAP	59	192	3
TAP	59	288	2
TAP	59	288	3
TAP	60	0	4
TAP	60	0	5
TAP	60	96	4
TAP	60	96	5
TAP	60	192	6
TAP	60	192	7
TAP	60	288	6
TAP	60	288	7
TAP	61	0	0
TAP	61	0	7
TAP	61	96	0
TAP	61	96	7
TAP	61	192	5
TAP	61	192	6
TAP	61	288	5
TAP	61	288	6
TAP	62	0	3
TAP	62	0	4
TAP	62	96	3
TAP	62	96	4
TAP	62	192	1
TAP	62	192	2
TAP	62	288	1
TAP	62	288	2
HLD	63	0	0	96
HLD	63	96	1	96
HLD	63	192	2	96
HLD	64	0	7	96
HLD	64	96	6	96
HLD	64	192	5	96
HLD	65	0	1	96
HLD	65	96	2	96
HLD	65	192	3	96
HLD	66	0	6	96
HLD	66	96	5	96
HLD	66	192	4	96
TAP	67	0	3
TAP	67	0	4
TAP	67	96	0
TAP	67	96	2
TAP	67	192	3
TAP	67	192	4
TAP	67	288	0
TAP	67	288	2
TAP	68	0	3
TAP	68	0	4
TAP	68	96	5
TAP	68	96	7
TAP	68	192	3
TAP	68	192	4
TAP	68	288	2
TAP	68	288	5
TAP	69	0	3
TAP	69	0	4
TAP	69	96	1
TAP	69	96	2
TAP	69	192	3
TAP	69	192	4
TAP	69	288	1
TAP	69	288	2
TAP	70	0	3
TAP	70	0	4
TAP	70	96	5
TAP	70	96	6
TAP	70	192	3
TAP	70	192	4
TAP	70	288	2
TAP	70	288	5
TAP	71	0	1
STR	71	0	6
SSR	71	0	6	96	288	2

T_REC_TAP	356
T_REC_BRK	10
T_REC_XTP	0
T_REC_HLD	12
T_REC_XHO	0
T_REC_STR	21
T_REC_BST	0
T_REC_XST	0
T_REC_TTP	0
T_REC_THO	0
T_REC_SLD	21
T_REC_ALL	420
T_NUM_TAP	377
T_NUM_BRK	10
T_NUM_HLD	12
T_NUM_SLD	21
T_NUM_ALL	420
T_JUDGE_TAP	387
T_JUDGE_HLD	24
T_JUDGE_SLD	21
T_JUDGE_ALL	432
TTM_EACHPAIRS	173
TTM_SCR_TAP	188500
TTM_SCR_BRK	26000
TTM_SCR_HLD	12000
TTM_SCR_SLD	31500
TTM_SCR_ALL	258000
TTM_SCR_S	249300
TTM_SCR_SS	257000
TTM_RAT_ACV	10038

