VERSION	0.00.00	1.03.00
FES_MODE	0
BPM_DEF	 94.000	126.000	160.000	 88.000
MET_DEF	4	4
RESOLUTION	384
CLK_DEF	384
COMPATIBLE_CODE	MA2

BPM	0	0	 94.000
BPM	1	192	 95.000
BPM	2	0	 97.000
BPM	2	192	 98.000
BPM	3	0	102.000
BPM	4	0	106.000
BPM	5	0	110.000
BPM	6	0	114.000
BPM	7	0	118.000
BPM	8	0	122.000
BPM	9	0	126.000
BPM	22	0	128.000
BPM	23	0	130.000
BPM	24	0	132.000
BPM	25	0	134.000
BPM	26	0	136.000
BPM	27	0	138.000
BPM	28	0	140.000
BPM	29	0	142.000
BPM	41	0	136.000
BPM	42	0	130.000
BPM	43	0	124.000
BPM	44	0	118.000
BPM	45	0	112.000
BPM	45	192	110.000
BPM	46	0	108.000
BPM	46	192	106.000
BPM	47	0	100.000
BPM	47	192	 98.000
BPM	48	0	 96.000
BPM	48	192	 94.000
BPM	49	0	 88.000
BPM	50	0	128.000
BPM	52	0	132.000
BPM	53	0	136.000
BPM	54	0	140.000
BPM	55	0	144.000
BPM	56	0	146.000
BPM	56	192	148.000
BPM	57	0	152.000
BPM	58	0	156.000
BPM	59	0	160.000
BPM	66	0	152.000
BPM	66	96	146.000
BPM	66	192	130.000
BPM	66	288	116.000
BPM	67	0	120.000
BPM	68	0	114.000
BPM	69	0	108.000
BPM	70	0	102.000
BPM	70	192	 98.000
BPM	70	288	 88.000
MET	0	0	4	4

TAP	1	0	0
TAP	1	192	0
TAP	2	0	0
TAP	2	96	0
TAP	2	192	0
TAP	3	0	1
TAP	3	192	1
TAP	4	0	1
TAP	4	96	1
TAP	4	192	1
TAP	5	0	2
TAP	5	192	2
TAP	6	0	2
TAP	6	96	2
TAP	6	192	2
TAP	7	0	3
TAP	7	192	3
TAP	8	0	3
TAP	8	96	3
TAP	8	192	3
TAP	9	0	4
TAP	9	96	4
TAP	9	192	3
TAP	9	288	3
TAP	10	0	4
TAP	10	96	4
TAP	10	192	3
TAP	10	192	4
TAP	11	0	3
TAP	11	96	3
TAP	11	192	4
TAP	11	288	4
TAP	12	0	3
TAP	12	96	3
BRK	12	192	3
BRK	12	192	4
TAP	13	0	4
TAP	13	96	4
TAP	13	192	4
TAP	14	0	5
TAP	14	96	5
TAP	14	192	5
TAP	15	0	6
TAP	15	96	6
TAP	15	192	6
TAP	16	0	7
TAP	16	96	7
TAP	16	192	0
TAP	16	192	7
TAP	17	0	0
TAP	17	96	0
TAP	17	192	0
TAP	18	0	1
TAP	18	96	1
TAP	18	192	1
STR	19	0	1
SI_	19	0	1	96	288	4
TAP	21	0	3
TAP	21	96	3
TAP	21	192	3
TAP	22	0	2
TAP	22	96	2
TAP	22	192	2
TAP	23	0	1
TAP	23	96	1
TAP	23	192	1
TAP	24	0	0
TAP	24	96	0
TAP	24	192	0
TAP	25	0	7
TAP	25	96	7
TAP	25	192	7
TAP	26	0	6
TAP	26	96	6
TAP	26	192	6
TAP	27	0	5
TAP	27	96	5
TAP	27	192	5
TAP	28	0	4
TAP	28	96	4
TAP	28	192	4
TAP	29	0	3
TAP	29	96	3
TAP	29	192	4
TAP	29	288	4
TAP	30	0	3
TAP	30	96	3
TAP	30	192	3
TAP	30	192	4
TAP	31	0	4
TAP	31	96	4
TAP	31	192	3
TAP	31	288	3
TAP	32	0	4
TAP	32	96	4
BRK	32	192	3
BRK	32	192	4
TAP	33	0	3
TAP	33	96	3
TAP	33	192	3
TAP	34	0	2
TAP	34	96	2
TAP	34	192	2
TAP	35	0	1
TAP	35	96	1
TAP	35	192	1
TAP	36	0	0
TAP	36	96	0
TAP	36	192	0
TAP	36	192	7
TAP	37	0	7
TAP	37	96	7
TAP	37	192	7
TAP	38	0	6
TAP	38	96	6
TAP	38	192	6
STR	39	0	6
SI_	39	0	6	96	288	3
TAP	41	0	4
TAP	41	96	4
TAP	41	192	4
TAP	42	0	5
TAP	42	96	5
TAP	42	192	5
TAP	43	0	6
TAP	43	96	6
TAP	43	192	6
TAP	44	0	7
TAP	44	96	7
TAP	44	192	7
TAP	45	0	0
TAP	45	96	0
TAP	45	192	0
TAP	46	0	1
TAP	46	96	1
TAP	46	192	1
TAP	47	0	2
TAP	47	96	2
TAP	47	192	2
TAP	48	0	3
TAP	48	96	3
TAP	48	192	3
TAP	49	0	3
TAP	49	0	4
TAP	50	0	3
TAP	50	96	3
TAP	50	192	4
BRK	50	288	4
TAP	51	0	3
TAP	51	96	3
TAP	51	192	3
TAP	52	0	2
TAP	52	96	2
TAP	52	192	2
TAP	53	0	1
TAP	53	96	1
TAP	53	192	1
TAP	54	0	0
TAP	54	96	0
TAP	54	192	0
TAP	55	0	7
TAP	55	96	7
TAP	55	192	7
TAP	56	0	6
TAP	56	96	6
TAP	56	192	6
TAP	57	0	5
TAP	57	96	5
TAP	57	192	5
TAP	58	0	4
TAP	58	96	4
TAP	58	192	4
TAP	59	0	2
TAP	59	0	3
TAP	59	192	2
TAP	59	192	3
TAP	60	0	4
TAP	60	0	5
TAP	60	192	4
TAP	60	192	5
TAP	61	0	2
TAP	61	0	4
TAP	61	192	2
TAP	61	192	4
TAP	62	0	3
TAP	62	0	5
TAP	62	192	3
TAP	62	192	5
TAP	63	0	4
TAP	63	192	4
TAP	64	0	5
TAP	64	192	5
TAP	65	0	6
TAP	65	192	6
HLD	66	0	7	192
TAP	67	0	0
TAP	67	96	0
TAP	67	192	0
TAP	68	0	1
TAP	68	96	1
TAP	68	192	1
TAP	69	0	2
TAP	69	96	2
TAP	69	192	2
TAP	70	0	3
TAP	70	96	3
TAP	70	192	3
HLD	71	0	3	384
HLD	71	0	4	384

T_REC_TAP	197
T_REC_BRK	5
T_REC_XTP	0
T_REC_HLD	3
T_REC_XHO	0
T_REC_STR	2
T_REC_BST	0
T_REC_XST	0
T_REC_TTP	0
T_REC_THO	0
T_REC_SLD	2
T_REC_ALL	209
T_NUM_TAP	199
T_NUM_BRK	5
T_NUM_HLD	3
T_NUM_SLD	2
T_NUM_ALL	209
T_JUDGE_TAP	204
T_JUDGE_HLD	36
T_JUDGE_SLD	2
T_JUDGE_ALL	242
TTM_EACHPAIRS	16
TTM_SCR_TAP	99500
TTM_SCR_BRK	13000
TTM_SCR_HLD	3000
TTM_SCR_SLD	3000
TTM_SCR_ALL	118500
TTM_SCR_S	114500
TTM_SCR_SS	118000
TTM_RAT_ACV	10042

