VERSION	0.00.00	1.03.00
FES_MODE	0
BPM_DEF	 97.500	195.000	195.000	 97.500
MET_DEF	4	4
RESOLUTION	384
CLK_DEF	384
COMPATIBLE_CODE	MA2

BPM	0	0	 97.500
BPM	11	0	195.000
MET	0	0	4	4

TAP	1	288	1
TAP	1	288	6
HLD	2	0	3	144
TAP	2	0	4
TAP	2	72	6
STR	2	144	7
SI_	2	144	7	48	96	4
HLD	3	0	1	144
TAP	3	0	3
TAP	3	72	7
STR	3	144	4
SCL	3	144	4	48	96	0
HLD	4	0	3	144
TAP	4	0	6
TAP	4	72	1
STR	4	144	4
SCR	4	144	4	48	96	0
SUR	4	144	4	48	96	0
HLD	5	0	1	96
HLD	5	0	6	96
HLD	5	144	2	96
HLD	5	144	5	96
TAP	5	288	3
TAP	5	288	4
HLD	6	0	1	144
TAP	6	0	2
TAP	6	72	6
STR	6	144	3
SCL	6	144	3	48	96	5
HLD	7	0	3	144
TAP	7	0	4
TAP	7	72	1
STR	7	144	4
SI_	7	144	4	48	96	7
HLD	8	0	2	144
TAP	8	0	7
TAP	8	72	4
STR	8	144	3
SCL	8	144	3	48	96	6
SUL	8	144	3	48	96	6
HLD	9	0	3	96
HLD	9	0	4	96
HLD	9	144	2	96
HLD	9	144	5	96
STR	9	288	1
SCL	9	288	1	48	336	4
STR	9	288	6
SCR	9	288	6	48	336	3
BRK	11	0	0
STR	11	48	0
SI_	11	48	0	96	48	4
STR	11	144	5
SI_	11	144	5	96	48	0
TAP	11	240	1
TAP	11	288	2
TAP	12	0	7
STR	12	48	7
SI_	12	48	7	96	48	3
STR	12	144	2
SI_	12	144	2	96	48	7
TAP	12	240	6
TAP	12	288	5
TAP	13	0	0
STR	13	48	0
SI_	13	48	0	96	48	4
STR	13	144	5
SI_	13	144	5	96	48	0
TAP	13	240	1
TAP	13	288	2
TAP	14	0	3
TAP	14	0	7
STR	14	48	3
SI_	14	48	3	96	48	0
STR	14	48	7
SI_	14	48	7	96	48	4
TAP	14	288	0
TAP	14	288	6
TAP	15	0	6
STR	15	48	6
SI_	15	48	6	96	48	3
STR	15	144	2
SCL	15	144	2	96	48	7
TAP	15	240	6
TAP	15	288	5
TAP	16	0	1
STR	16	48	1
SI_	16	48	1	96	48	4
STR	16	144	5
SCR	16	144	5	96	48	0
TAP	16	240	1
TAP	16	288	2
TAP	17	0	6
STR	17	48	6
SI_	17	48	6	96	48	3
STR	17	144	2
SCL	17	144	2	96	48	7
TAP	17	240	6
TAP	17	288	5
TAP	18	0	0
TAP	18	0	4
STR	18	48	0
SCR	18	48	0	96	48	3
STR	18	48	4
SCR	18	48	4	96	48	7
TAP	18	288	2
TAP	18	288	4
TAP	19	0	0
STR	19	48	0
SI_	19	48	0	96	48	4
STR	19	144	5
SLR	19	144	5	96	48	1
TAP	19	240	2
TAP	19	288	3
TAP	20	0	7
STR	20	48	7
SI_	20	48	7	96	48	3
STR	20	144	2
SLL	20	144	2	96	48	6
TAP	20	240	5
TAP	20	288	4
TAP	21	0	0
STR	21	48	0
SI_	21	48	0	96	48	4
STR	21	144	5
SLR	21	144	5	96	48	1
TAP	21	240	2
TAP	21	288	3
TAP	22	0	3
TAP	22	0	7
STR	22	48	3
SCL	22	48	3	96	48	0
STR	22	48	7
SCL	22	48	7	96	48	4
TAP	22	288	1
TAP	22	288	7
TAP	23	0	1
STR	23	48	1
SCR	23	48	1	96	48	4
STR	23	144	5
SLR	23	144	5	96	48	1
TAP	23	240	2
TAP	23	288	3
TAP	24	0	6
STR	24	48	6
SCL	24	48	6	96	48	3
STR	24	144	2
SLL	24	144	2	96	48	6
TAP	24	240	5
TAP	24	288	4
STR	25	0	4
SCL	25	0	4	96	144	0
STR	25	144	0
SCL	25	144	0	96	144	4
STR	25	288	4
SUL	25	288	4	96	96	0
STR	26	0	0
SUL	26	0	0	96	96	4
STR	26	288	4
SI_	26	288	4	96	96	7
HLD	27	0	1	96
TAP	27	288	0
TAP	27	288	6
TAP	28	0	3
TAP	28	96	1
TAP	28	96	7
TAP	28	144	1
STR	28	144	7
SI_	28	144	7	96	48	4
TAP	28	240	3
HLD	28	336	2	240
HLD	28	336	3	240
TAP	29	288	1
TAP	29	288	7
TAP	30	0	4
TAP	30	96	0
TAP	30	96	6
STR	30	144	0
SI_	30	144	0	96	48	3
TAP	30	144	6
TAP	30	240	4
HLD	30	336	6	240
HLD	30	336	7	240
TAP	31	288	4
TAP	31	288	5
TAP	32	0	1
TAP	32	96	0
TAP	32	96	6
TAP	32	144	0
STR	32	144	6
SI_	32	144	6	96	48	1
TAP	32	240	3
HLD	32	336	0	240
TAP	32	336	1
STR	33	192	1
SI_	33	192	1	96	96	6
STR	33	288	6
SI_	33	288	6	96	96	2
STR	34	0	2
SI_	34	0	2	96	96	7
STR	34	96	7
SI_	34	96	7	96	96	4
STR	34	192	4
SI_	34	192	4	96	96	1
TAP	34	288	1
HLD	35	0	7	192
TAP	35	192	0
HLD	35	288	3	480
TAP	35	288	5
TAP	36	0	1
TAP	36	96	6
TAP	36	192	0
STR	36	288	7
SI_	36	288	7	96	96	4
TAP	37	0	7
TAP	37	192	4
TAP	37	288	1
HLD	37	288	7	480
TAP	38	0	5
TAP	38	96	2
TAP	38	192	4
STR	38	288	3
SI_	38	288	3	96	96	0
TAP	39	0	3
HLD	39	192	2	144
STR	39	336	5
SCR	39	336	5	96	48	0
TAP	40	48	1
STR	40	192	7
SCR	40	192	7	96	96	3
STR	40	288	3
SCR	40	288	3	96	96	7
TAP	41	0	7
STR	41	144	0
SI_	41	144	0	96	48	3
TAP	41	192	0
HLD	42	0	4	96
HLD	42	0	5	96
HLD	42	192	6	96
HLD	42	192	7	96
TAP	43	0	2
TAP	43	48	3
TAP	43	96	2
TAP	43	144	3
HLD	43	192	2	96
TAP	43	288	7
TAP	44	0	5
TAP	44	48	4
TAP	44	96	5
TAP	44	144	4
HLD	44	192	5	96
TAP	44	288	0
STR	45	0	4
SI_	45	0	4	96	48	1
HLD	45	0	5	96
STR	45	192	4
SI_	45	192	4	96	48	1
HLD	45	192	5	96
STR	46	0	4
SI_	46	0	4	96	48	0
HLD	46	0	6	96
STR	46	192	4
SI_	46	192	4	96	48	0
HLD	46	192	6	96
TAP	47	0	6
TAP	47	48	7
TAP	47	96	6
TAP	47	144	7
HLD	47	192	6	96
TAP	47	288	3
TAP	48	0	1
TAP	48	48	0
TAP	48	96	1
TAP	48	144	0
HLD	48	192	1	96
TAP	48	288	4
HLD	49	0	2	96
STR	49	0	3
SI_	49	0	3	96	48	6
HLD	49	192	2	96
STR	49	192	3
SI_	49	192	3	96	48	6
HLD	50	0	1	96
STR	50	0	3
SI_	50	0	3	96	48	7
HLD	50	192	1	96
STR	50	192	3
SI_	50	192	3	96	48	7
TAP	51	0	2
TAP	51	48	3
TAP	51	96	1
TAP	51	144	3
HLD	51	192	2	96
TAP	51	288	7
TAP	52	0	5
TAP	52	48	4
TAP	52	96	6
TAP	52	144	4
HLD	52	192	5	96
TAP	52	288	0
TAP	53	0	2
STR	53	0	3
SCR	53	0	3	96	48	6
TAP	53	96	0
TAP	53	192	2
STR	53	192	3
SCR	53	192	3	96	48	6
TAP	53	288	0
TAP	54	0	2
STR	54	0	3
SUR	54	0	3	96	48	7
TAP	54	96	0
TAP	54	192	2
STR	54	192	3
SUR	54	192	3	96	48	7
TAP	54	288	0
TAP	55	0	1
TAP	55	48	0
TAP	55	96	2
TAP	55	144	0
HLD	55	192	1	96
TAP	55	288	4
TAP	56	0	6
TAP	56	48	7
TAP	56	96	5
TAP	56	144	7
HLD	56	192	6	96
TAP	56	288	3
STR	57	0	4
SCL	57	0	4	96	48	1
TAP	57	0	5
TAP	57	96	7
STR	57	192	4
SCL	57	192	4	96	48	1
TAP	57	192	5
TAP	57	288	7
STR	58	0	4
SUL	58	0	4	96	48	0
TAP	58	0	5
TAP	58	96	7
STR	58	192	4
SUL	58	192	4	96	48	0
TAP	58	192	5
TAP	58	288	7
STR	59	0	1
SI_	59	0	1	96	48	4
STR	59	96	6
SI_	59	96	6	96	48	3
STR	59	192	1
SCR	59	192	1	96	48	4
STR	59	288	6
SCL	59	288	6	96	48	3
STR	60	0	0
SUR	60	0	0	96	48	5
STR	60	96	7
SUL	60	96	7	96	48	2
TAP	60	192	0
TAP	60	288	1
TAP	60	288	6
TAP	61	0	2
TAP	61	48	3
TAP	61	96	2
BRK	61	144	1
BRK	61	144	4
TAP	61	288	5
TAP	61	336	4
TAP	62	0	5
BRK	62	48	3
BRK	62	48	6
TAP	62	144	7
TAP	62	192	0
TAP	62	240	1
STR	62	288	2
SCL	62	288	2	96	96	5
BRK	63	0	2
HLD	63	0	4	192
TAP	63	192	3
STR	63	288	1
SCR	63	288	1	96	48	4
TAP	63	336	0
TAP	64	0	1
STR	64	144	5
SCR	64	144	5	96	48	0
TAP	64	288	1
STR	65	0	2
SCR	65	0	2	96	96	5
STR	65	96	5
SCR	65	96	5	96	96	0
STR	65	192	0
SCR	65	192	0	96	96	3
STR	65	288	3
SUL	65	288	3	96	96	7
SUR	65	288	3	96	96	7
TAP	65	336	3
TAP	66	240	2
TAP	66	288	3
TAP	66	336	4
STR	67	0	5
SCL	67	0	5	96	48	2
TAP	67	96	2
TAP	67	192	1
TAP	67	240	6
STR	67	336	3
SI_	67	336	3	96	48	1
STR	67	336	4
SI_	67	336	4	96	48	6
TAP	68	48	3
TAP	68	48	4
TAP	68	144	0
TAP	68	144	7
TAP	68	240	1
TAP	68	240	6
TAP	69	0	3
HLD	69	0	4	144
TAP	69	96	2
HLD	69	144	2	144
TAP	69	240	5
TAP	69	288	5
HLD	70	0	0	96
HLD	70	0	4	96
HLD	70	144	2	96
HLD	70	144	6	96
STR	70	288	3
SI_	70	288	3	96	48	0
STR	70	288	4
SI_	70	288	4	96	48	7
BRK	71	0	3
BRK	71	0	4
TAP	71	192	1
TAP	71	192	6
STR	71	288	2
SI_	71	288	2	96	48	7
TAP	71	336	3
TAP	72	0	2
STR	72	144	5
SI_	72	144	5	96	48	0
TAP	72	288	1
STR	73	0	0
SI_	73	0	0	96	96	6
STR	73	96	6
SI_	73	96	6	96	96	4
STR	73	192	4
SCL	73	192	4	96	96	1
STR	73	288	1
SI_	73	288	1	96	96	6
TAP	73	336	1
HLD	74	192	6	96
HLD	74	288	4	96
HLD	75	0	2	96
TAP	75	96	0
STR	75	192	6
SCL	75	192	6	96	48	3
TAP	75	288	0
STR	76	0	1
SCR	76	0	1	96	48	4
TAP	76	96	7
HLD	76	192	5	96
TAP	76	288	0
HLD	77	0	2	192
TAP	77	0	7
STR	77	192	1
SI_	77	192	1	96	96	6
STR	77	288	6
SI_	77	288	6	96	96	3
STR	78	0	3
SI_	78	0	3	96	96	7
STR	78	96	7
SI_	78	96	7	96	96	4
STR	78	192	4
SI_	78	192	4	96	96	1
STR	78	288	1
SCL	78	288	1	96	672	1
BRK	79	0	7
STR	81	0	2
SI_	81	0	2	96	48	7
TAP	81	96	4
TAP	81	192	5
TAP	81	240	5
TAP	81	288	4
TAP	81	288	6
STR	82	0	5
SI_	82	0	5	96	48	0
TAP	82	96	3
TAP	82	192	2
TAP	82	240	2
TAP	82	288	1
TAP	82	288	3
STR	83	0	2
SCL	83	0	2	96	48	7
TAP	83	96	4
TAP	83	192	5
TAP	83	240	5
TAP	83	288	4
TAP	83	288	6
STR	84	0	5
SCR	84	0	5	96	48	0
TAP	84	96	3
TAP	84	192	2
TAP	84	240	2
TAP	84	288	1
TAP	84	288	3
STR	85	0	2
SCL	85	0	2	96	48	7
TAP	85	96	4
TAP	85	192	5
TAP	85	240	5
TAP	85	288	4
TAP	85	288	6
STR	86	0	5
SCR	86	0	5	96	48	0
TAP	86	96	3
TAP	86	192	2
TAP	86	240	2
TAP	86	288	1
TAP	86	288	3
BRK	87	0	7
TAP	87	48	0
TAP	87	48	6
STR	87	144	0
SI_	87	144	0	96	48	4
TAP	87	192	7
TAP	87	240	0
STR	87	336	4
SI_	87	336	4	96	48	0
TAP	88	0	3
TAP	88	48	4
STR	88	144	0
SI_	88	144	0	96	48	4
TAP	88	192	7
TAP	88	240	0
STR	88	336	4
SI_	88	336	4	96	48	0
TAP	89	0	3
TAP	89	48	4
STR	89	144	1
SI_	89	144	1	96	48	5
TAP	89	192	0
TAP	89	240	1
STR	89	336	5
SI_	89	336	5	96	48	1
TAP	90	0	4
TAP	90	48	5
TAP	90	144	2
TAP	90	144	7
TAP	90	192	2
TAP	90	192	7
TAP	90	264	4
TAP	90	264	5
TAP	90	336	0
TAP	90	336	7
TAP	91	0	1
TAP	91	48	0
TAP	91	48	2
STR	91	144	7
SI_	91	144	7	96	48	3
TAP	91	192	0
TAP	91	240	7
STR	91	336	3
SI_	91	336	3	96	48	7
TAP	92	0	4
TAP	92	48	3
STR	92	144	7
SI_	92	144	7	96	48	3
TAP	92	192	0
TAP	92	240	7
STR	92	336	3
SI_	92	336	3	96	48	7
TAP	93	0	4
TAP	93	48	3
STR	93	144	6
SI_	93	144	6	96	48	2
TAP	93	192	7
TAP	93	240	6
STR	93	336	2
SI_	93	336	2	96	48	6
TAP	94	0	3
TAP	94	48	2
TAP	94	144	0
TAP	94	144	5
TAP	94	192	0
TAP	94	192	5
TAP	94	264	2
TAP	94	264	3
TAP	94	336	0
TAP	94	336	7
BST	95	0	0
SCR	95	0	0	96	1440	7
BRK	95	0	7

T_REC_TAP	273
T_REC_BRK	11
T_REC_XTP	0
T_REC_HLD	56
T_REC_XHO	0
T_REC_STR	121
T_REC_BST	1
T_REC_XST	0
T_REC_TTP	0
T_REC_THO	0
T_REC_SLD	125
T_REC_ALL	587
T_NUM_TAP	394
T_NUM_BRK	12
T_NUM_HLD	56
T_NUM_SLD	125
T_NUM_ALL	587
T_JUDGE_TAP	406
T_JUDGE_HLD	192
T_JUDGE_SLD	125
T_JUDGE_ALL	723
TTM_EACHPAIRS	86
TTM_SCR_TAP	197000
TTM_SCR_BRK	31200
TTM_SCR_HLD	56000
TTM_SCR_SLD	187500
TTM_SCR_ALL	471700
TTM_SCR_S	456400
TTM_SCR_SS	470500
TTM_RAT_ACV	10025

