VERSION	0.00.00	1.03.00
FES_MODE	0
BPM_DEF	 97.500	195.000	195.000	 97.500
MET_DEF	4	4
RESOLUTION	384
CLK_DEF	384
COMPATIBLE_CODE	MA2

BPM	0	0	 97.500
BPM	11	0	195.000
MET	0	0	4	4

HLD	2	0	5	288
HLD	3	0	4	288
HLD	4	0	3	288
STR	5	0	2
SCL	5	0	2	48	240	5
HLD	6	0	5	192
TAP	6	288	4
TAP	6	288	5
HLD	7	0	4	192
TAP	7	288	3
TAP	7	288	4
HLD	8	0	3	192
TAP	8	288	2
TAP	8	288	3
TAP	9	0	2
TAP	9	96	3
STR	9	192	4
SCR	9	192	4	48	432	3
TAP	11	0	2
TAP	11	96	2
TAP	11	192	2
TAP	12	0	3
TAP	12	96	3
TAP	12	192	2
TAP	12	192	4
TAP	13	0	5
TAP	13	96	5
TAP	13	192	5
TAP	14	0	4
TAP	14	96	4
TAP	14	192	3
TAP	14	192	5
TAP	15	0	6
TAP	15	96	6
TAP	15	192	6
TAP	16	0	7
TAP	16	96	7
TAP	16	192	0
TAP	16	192	6
TAP	17	0	1
TAP	17	96	1
TAP	17	192	1
TAP	18	0	0
TAP	18	96	0
TAP	18	192	1
TAP	18	192	7
TAP	19	0	2
TAP	19	96	3
TAP	19	192	1
TAP	19	192	4
TAP	20	0	0
TAP	20	96	0
TAP	20	192	1
TAP	20	192	7
TAP	21	0	5
TAP	21	96	4
TAP	21	192	3
TAP	21	192	6
TAP	22	0	7
TAP	22	96	7
TAP	22	192	0
TAP	22	192	6
TAP	23	0	1
TAP	23	96	0
TAP	23	192	2
TAP	23	192	7
TAP	24	0	6
TAP	24	96	7
TAP	24	192	0
TAP	24	192	5
TAP	25	0	0
TAP	25	0	7
TAP	25	96	1
TAP	25	96	6
TAP	25	192	2
TAP	25	192	5
STR	25	288	3
SCL	25	288	3	96	240	0
STR	25	288	4
SCR	25	288	4	96	240	7
HLD	27	0	1	192
TAP	27	192	0
TAP	28	0	2
TAP	28	96	3
TAP	28	192	4
TAP	28	192	5
HLD	29	0	6	192
TAP	29	192	7
TAP	30	0	5
TAP	30	96	4
TAP	30	192	2
TAP	30	192	3
HLD	31	0	1	192
TAP	31	192	0
TAP	32	0	2
TAP	32	96	3
TAP	32	192	4
TAP	32	288	5
HLD	33	0	6	192
TAP	33	192	7
STR	34	0	5
SCR	34	0	5	96	192	0
HLD	35	0	1	192
TAP	35	192	0
TAP	35	288	1
TAP	36	0	2
TAP	36	96	3
TAP	36	192	4
TAP	36	288	5
HLD	37	0	6	192
TAP	37	192	7
TAP	37	288	6
TAP	38	0	5
TAP	38	96	4
TAP	38	192	3
TAP	38	288	2
STR	39	0	1
SCL	39	0	1	96	192	6
STR	40	0	5
SCL	40	0	5	96	192	2
STR	41	0	1
SCL	41	0	1	96	480	2
HLD	43	0	3	192
TAP	43	192	4
HLD	44	0	5	192
TAP	44	192	4
HLD	45	0	2	192
TAP	45	192	3
HLD	46	0	6	192
TAP	46	192	4
HLD	47	0	1	192
TAP	47	192	3
HLD	48	0	7	192
TAP	48	192	5
HLD	49	0	0	192
TAP	49	192	2
TAP	50	0	0
TAP	50	96	7
TAP	50	192	6
TAP	50	288	5
HLD	51	0	4	192
TAP	51	192	3
HLD	52	0	2	192
TAP	52	192	3
HLD	53	0	5	192
TAP	53	192	4
HLD	54	0	1	192
TAP	54	192	3
HLD	55	0	6	192
TAP	55	192	4
HLD	56	0	0	192
TAP	56	192	7
TAP	57	0	1
TAP	57	96	0
TAP	57	192	2
TAP	57	192	7
TAP	58	0	6
TAP	58	96	7
TAP	58	192	0
TAP	58	192	5
TAP	59	0	1
TAP	59	96	1
TAP	59	192	2
TAP	59	288	2
TAP	60	0	3
TAP	60	96	3
TAP	60	192	4
TAP	60	288	4
HLD	61	0	5	288
STR	61	288	6
SCR	61	288	6	96	288	2
TAP	63	0	4
TAP	63	96	4
TAP	63	192	5
TAP	63	288	5
TAP	64	0	4
TAP	64	96	5
TAP	64	192	3
TAP	64	192	6
TAP	65	0	3
TAP	65	96	3
TAP	65	192	2
TAP	65	288	2
TAP	66	0	3
TAP	66	96	2
TAP	66	192	1
TAP	66	192	4
TAP	67	0	7
TAP	67	96	7
TAP	67	192	0
TAP	67	288	0
TAP	68	0	7
TAP	68	96	0
TAP	68	192	1
TAP	68	192	6
TAP	69	0	3
STR	69	96	3
SI_	69	96	3	96	144	0
TAP	70	0	4
STR	70	96	4
SI_	70	96	4	96	144	7
TAP	71	0	0
TAP	71	96	0
TAP	71	192	7
TAP	71	288	7
TAP	72	0	0
TAP	72	96	7
TAP	72	192	1
TAP	72	192	6
STR	73	0	2
SCL	73	0	2	96	384	5
TAP	74	192	3
TAP	74	192	4
TAP	74	288	2
TAP	74	288	5
BRK	75	0	1
BRK	75	0	6
TAP	75	192	7
TAP	75	288	7
TAP	76	0	0
TAP	76	96	0
TAP	76	192	1
TAP	76	288	1
STR	77	0	2
SI_	77	0	2	96	144	7
STR	77	0	3
SI_	77	0	3	96	144	6
STR	78	0	4
SI_	78	0	4	96	144	1
STR	78	0	5
SI_	78	0	5	96	144	0
BST	79	0	3
SXR	79	0	3	96	528	0
BST	79	0	4
SXL	79	0	4	96	528	7
TAP	81	0	6
TAP	81	96	5
TAP	81	192	4
TAP	81	288	3
TAP	82	0	2
TAP	82	96	1
TAP	82	192	0
TAP	82	192	7
TAP	83	0	7
TAP	83	96	6
TAP	83	192	5
TAP	83	288	4
TAP	84	0	3
TAP	84	96	2
TAP	84	192	1
TAP	84	288	0
STR	85	0	7
SCL	85	0	7	96	192	4
STR	86	0	3
SCL	86	0	3	96	192	0
TAP	87	0	6
TAP	87	96	6
TAP	87	96	7
TAP	87	192	5
TAP	87	288	4
TAP	87	288	5
TAP	88	0	2
TAP	88	96	2
TAP	88	96	3
TAP	88	192	1
TAP	88	288	0
TAP	88	288	1
TAP	89	0	6
TAP	89	96	6
TAP	89	96	7
TAP	89	192	1
TAP	89	288	0
TAP	89	288	1
TAP	90	0	7
TAP	90	96	0
TAP	90	96	7
TAP	90	192	1
TAP	90	192	6
TAP	91	0	1
TAP	91	96	0
TAP	91	96	2
TAP	91	192	3
TAP	91	288	2
TAP	91	288	4
TAP	92	0	5
TAP	92	96	4
TAP	92	96	6
TAP	92	192	7
TAP	92	288	0
TAP	92	288	6
TAP	93	0	5
TAP	93	96	4
TAP	93	96	6
TAP	93	192	2
TAP	93	288	1
TAP	93	288	3
TAP	94	0	3
TAP	94	0	4
TAP	94	96	2
TAP	94	96	5
TAP	94	192	1
TAP	94	192	6
TAP	94	288	0
TAP	94	288	7
HLD	95	0	6	1536

T_REC_TAP	236
T_REC_BRK	2
T_REC_XTP	0
T_REC_HLD	27
T_REC_XHO	0
T_REC_STR	18
T_REC_BST	2
T_REC_XST	0
T_REC_TTP	0
T_REC_THO	0
T_REC_SLD	20
T_REC_ALL	305
T_NUM_TAP	254
T_NUM_BRK	4
T_NUM_HLD	27
T_NUM_SLD	20
T_NUM_ALL	305
T_JUDGE_TAP	258
T_JUDGE_HLD	174
T_JUDGE_SLD	20
T_JUDGE_ALL	452
TTM_EACHPAIRS	50
TTM_SCR_TAP	127000
TTM_SCR_BRK	10400
TTM_SCR_HLD	27000
TTM_SCR_SLD	30000
TTM_SCR_ALL	194400
TTM_SCR_S	188200
TTM_SCR_SS	194000
TTM_RAT_ACV	10020

